Mare Duo - Carlo Domeniconi - Works for Mandolin & Guitar (2021) [Official Digital Download 24/96]

Posted By: pyatak
Mare Duo - Carlo Domeniconi - Works for Mandolin & Guitar (2021) [Official Digital Download 24/96]

Mare Duo - Carlo Domeniconi - Works for Mandolin & Guitar (2021) [Official Digital Download 24/96]
FLAC (tracks) 24-bit/96 kHz | Front Cover | Time - 65:07 minutes | 1,01 GB
Classical | Label: Naxos, Official Digital Download

Carlo Domeniconi is a master of guitar composition. His fusion of Western and Eastern elements is a distinctive feature of his writing, and this album presents a body of work for the unusual combination of mandolin and guitar. The large-scale Durandarte charts a medieval knights wild journey through the countryside, which is accompanied by poignant love songs, elegies, and agitated cross-rhythms. In Tarantula precox he summons up a dervish-like dance; while in the kaleidoscopic moods of Zemrude the Orient and the Middle East merge dramatically. All but one of these works have been composed especially for the Mare Duo. The Mare Duo has inspired numerous composers to enrich the repertoire for their formation, including Carlo Domeniconi, Jaime Zenamon, Konstantin Vassiliev, Jürg Kindle, Frank Wallace, Thomas Allen LeVines, Lars Wüller, and many others. The Mare Duo is also interested in performing the classical repertoire for their formation as well as playing innovative transcriptions. Annika and Fabian have released several solo, duo and chamber music albums with labels such as Naxos, Schott Music and Gyre Records, and they have appeared on TV productions including MTV Unplugged.

TRACKLIST

01. Mare Duo - Durandarte: I. Durandarte
02. Mare Duo - Durandarte: II. En camino
03. Mare Duo - Durandarte: III. Tiempo pasado
04. Mare Duo - Durandarte: IV. Caballero enamorado
05. Mare Duo - Durandarte: V. Por qué me has olvidado
06. Mare Duo - Durandarte: VI. Palabras son lisonjeras
07. Mare Duo - Durandarte: VII. Vos lo habéis todo
08. Mare Duo - Durandarte: VIII. Desterrado
09. Mare Duo - Durandarte: IX. La muerte
10. Mare Duo - Le città e gli occhi (Zemrude) [2018 Revised Version]
11. Mare Duo - Tempelmusik: I. Quarter Note = 80
12. Mare Duo - Tempelmusik: II. Quarter Note = 100
13. Mare Duo - Tempelmusik: III. Quarter Note = 60
14. Mare Duo - Tempelmusik: IV. Dotted Quarter Note = 120
15. Mare Duo - Tempelmusik: V. Quarter Note = 50
16. Mare Duo - Palastmusik
17. Mare Duo - Tarantula precox

foobar2000 1.6.2 / Dynamic Range Meter 1.1.1
log date: 2021-01-14 14:15:55

––––––––––––––––––––––––––––––––––––––––
Analyzed: Mare Duo / Carlo Domeniconi: Works for Mandolin & Guitar
––––––––––––––––––––––––––––––––––––––––

DR Peak RMS Duration Track
––––––––––––––––––––––––––––––––––––––––
DR15 -3.82 dB -23.24 dB 5:34 01-Durandarte: I. Durandarte
DR12 -5.82 dB -22.31 dB 2:38 02-Durandarte: II. En camino
DR14 -9.38 dB -28.72 dB 2:38 03-Durandarte: III. Tiempo pasado
DR13 -9.73 dB -27.75 dB 3:47 04-Durandarte: IV. Caballero enamorado
DR9 -5.29 dB -19.20 dB 3:53 05-Durandarte: V. Por qué me has olvidado
DR13 -9.02 dB -26.31 dB 2:53 06-Durandarte: VI. Palabras son lisonjeras
DR12 -9.86 dB -25.08 dB 2:48 07-Durandarte: VII. Vos lo habéis todo
DR15 -7.44 dB -29.67 dB 3:11 08-Durandarte: VIII. Desterrado
DR16 -0.10 dB -22.23 dB 5:19 09-Durandarte: IX. La muerte
DR13 -5.63 dB -23.78 dB 9:13 10-Le città e gli occhi (Zemrude) [2018 Revised Version]
DR11 -5.04 dB -21.26 dB 3:14 11-Tempelmusik: I. Quarter Note = 80
DR11 -3.68 dB -20.45 dB 1:37 12-Tempelmusik: II. Quarter Note = 100
DR10 -5.59 dB -20.46 dB 3:29 13-Tempelmusik: III. Quarter Note = 60
DR8 -4.58 dB -19.68 dB 0:51 14-Tempelmusik: IV. Dotted Quarter Note = 120
DR7 -8.11 dB -21.83 dB 1:52 15-Tempelmusik: V. Quarter Note = 50
DR11 -2.69 dB -21.98 dB 7:40 16-Palastmusik
DR15 -2.70 dB -23.61 dB 4:30 17-Tarantula precox
––––––––––––––––––––––––––––––––––––––––

Number of tracks: 17
Official DR value: DR12

Samplerate: 96000 Hz
Channels: 2
Bits per sample: 24
Bitrate: 2321 kbps
Codec: FLAC
================================================================================



Thanks to the Original customer.