La Rêveuse, Benjamin Perrot & Florence Bolton - Marin Marais: Pièces de viole (2018) [Official Digital Download 24/96]

Posted By: SERTiL
La Rêveuse, Benjamin Perrot & Florence Bolton - Marin Marais: Pièces de viole (2018) [Official Digital Download 24/96]

La Rêveuse, Benjamin Perrot & Florence Bolton - Marin Marais: Pièces de viole (2018)
FLAC (tracks) 24-bit/96 kHz | Time - 63:21 minutes | 1.11 GB
Studio Master, Official Digital Download | Artwork: Digital Booklet

Marin Marais possesses the grace, elegance and wit so appealing in the goût français of the eighteenth century. The character pieces of his last two books depict portraits, landscapes and little genre scenes in painterly fashion, and are an unsurpassed highpoint of the viol repertory.

Tracklist:

Marin Marais (1656-1728)

01. Pièces de viole, Troisième livre: I. Prélude
02. Pièces de viole, Cinquième livre, Suite No. 6: XIV. Le Jeu du Volant
03. Pièces De Viole, Cinquième Livre, Suite No. 6: XVII. Le Petit Badinage
04. Pièces de viole, Cinquième livre, Suite No. 6: XVI. Le Rondeau Villeneuve
05. Pièces de viole, Cinquième livre, Suite No. 6: IX. Rondeau Le Troilleur

François Couperiin (1668-1733)

06. Second livre de pièces de clavecin, Ordre VI: V. Les Barricades Mystérieuse

Marin Marais

07. Pièces à une et à trois violes, Quatrième livre: I. Prélude
08. Pièces de viole, Cinquième livre, Suite No. 7: V. Gavotte Singulière
09. Pièces à une et à trois violes, Quatrième livre "Suite d'un Goût Etranger": IX. Rondeau Le Bijou
10. Pièces à une et à trois violes, Quatrième livre "Suite d'un Goût Etranger": VII. Fête Champêtre
11. Pièces à une et à trois violes, Quatrième livre, Suite No. 6: XI. La Biscayenne
12. Pièces À Une Et À Trois Violes, Quatrième Livre "Suite D'Un Goût Etranger": Xxxiii. Le Badinage
13. Pièces de viole, Cinquième livre: II. La Paraza
14. Pièces de viole, Cinquième livre: III. Le Tact

François Couperiin

15. Troisième livre de pièces de clavecin, Ordre XV: II. Le Dodo ou l’Amour au Berceau
16. Pièces de viole, Cinquième livre, Suite No. 3: X. Rondeau Le Doucereux
17. Pièces à une et à trois violes, Quatrième livre, Suite No.3: VII. La Provençale
18. Pièces À Une Et À Trois Violes, Quatrième Livre "Suite D'Un Goût Etranger": Xxviii. La Rêveuse

Personnel:
Florence Bolton, viola da gamba
Benjamin Perrot, theorbo
Carsten Lohff, cembalo
Robin Pharo, viola da gamba

foobar2000 1.3.7 / Dynamic Range Meter 1.1.1
log date: 2018-01-14 16:20:04

––––––––––––––––––––––––––––––––––––––––
Analyzed: La Rêveuse and Benjamin Perrot / Marin Marais: Pièces de viole (1-2)
La Rêveuse, Benjamin Perrot and Florence Bolton / Marin Marais: Pièces de viole (3-18)
––––––––––––––––––––––––––––––––––––––––

DR Peak RMS Duration Track
––––––––––––––––––––––––––––––––––––––––
DR11 -8.71 dB -24.51 dB 3:04 06-Second livre de pièces de clavecin, Ordre VI: V. Les Barricades Mystérieuse
DR13 -11.58 dB -28.08 dB 4:16 15-Troisième livre de pièces de clavecin, Ordre XV: II. Le Dodo ou l’Amour au Berceau
DR12 -5.97 dB -23.53 dB 2:16 01-Pièces de viole, Troisième livre: I. Prélude
DR12 -0.18 dB -17.21 dB 1:57 02-Pièces de viole, Cinquième livre, Suite No. 6: XIV. Le Jeu du Volant
DR10 -5.83 dB -20.84 dB 2:05 03-Pièces De Viole, Cinquième Livre, Suite No. 6: XVII. Le Petit Badinage
DR12 -0.08 dB -14.47 dB 2:50 04-Pièces de viole, Cinquième livre, Suite No. 6: XVI. Le Rondeau Villeneuve
DR12 -1.88 dB -20.10 dB 4:07 05-Pièces de viole, Cinquième livre, Suite No. 6: IX. Rondeau Le Troilleur
DR14 -5.22 dB -23.67 dB 2:48 07-Pièces à une et à trois violes, Quatrième livre: I. Prélude
DR11 -3.53 dB -19.18 dB 1:50 08-Pièces de viole, Cinquième livre, Suite No. 7: V. Gavotte Singulière
DR13 -1.44 dB -20.70 dB 4:15 09-Pièces à une et à trois violes, Quatrième livre "Suite d'un Goût Etranger": IX. Rondeau Le Bijou
DR12 -1.64 dB -19.90 dB 4:34 10-Pièces à une et à trois violes, Quatrième livre "Suite d'un Goût Etranger": VII. Fête Champêtre
DR12 -1.35 dB -17.76 dB 2:49 11-Pièces à une et à trois violes, Quatrième livre, Suite No. 6: XI. La Biscayenne
DR14 -5.53 dB -23.44 dB 6:19 12-Pièces À Une Et À Trois Violes, Quatrième Livre "Suite D'Un Goût Etranger": Xxxiii. Le Badinage
DR13 -0.74 dB -18.63 dB 3:54 13-Pièces de viole, Cinquième livre: II. La Paraza
DR12 -6.68 dB -23.63 dB 1:50 14-Pièces de viole, Cinquième livre: III. Le Tact
DR12 -0.72 dB -21.68 dB 5:07 16-Pièces de viole, Cinquième livre, Suite No. 3: X. Rondeau Le Doucereux
DR12 -0.14 dB -17.70 dB 3:09 17-Pièces à une et à trois violes, Quatrième livre, Suite No.3: VII. La Provençale
DR13 -3.64 dB -22.72 dB 6:19 18-Pièces À Une Et À Trois Violes, Quatrième Livre "Suite D'Un Goût Etranger": Xxviii. La Rêveuse
––––––––––––––––––––––––––––––––––––––––

Number of tracks: 18
Official DR value: DR12

Samplerate: 96000 Hz
Channels: 2
Bits per sample: 24
Bitrate: 2328 kbps
Codec: FLAC
================================================================================


Thanks to the Original customer.