Marina Lima - Simples Como Fogo (1979/2021) [Official Digital Download]

Posted By: pyatak
Marina Lima - Simples Como Fogo (1979/2021) [Official Digital Download]

Marina Lima - Simples Como Fogo (1979/2021) [Official Digital Download]
FLAC (tracks) 24-bit/48 kHz | Front Cover | Time - 34:53 minutes | 391 MB
Pop, Latin | Label: WM Brazil , Official Digital Download

Simple as fire is the debut album by singer-songwriter Marina, released in 1979.

Contratada pela WEA tempos antes, Marina resolveu trabalhar as letras e arranjos do álbum com calma. Chama atenção a capa, raised by a two diretores da gravadora, with the intention of ressaltar a "sensualidade e a inteligência" da artista. At that time, Marina, along with Rita Lee, was the only MPB composer.

We highlight the faixas "Solidão", which opened the album (segundo Marina Lima, era proposital, pois a música era de Dolores Duran, umas das primeiras compositoras do Brasil) and" A Chave do Mundo", which entrou na trilha sonora da novela Pai Herói, exibida no mismo ano.

TRACKLIST

1. Marina Lima - Solidão
2. Marina Lima - Transas de amor
3. Marina Lima - A chave do mundo
4. Marina Lima - Tão fácil
5. Marina Lima - Maneira de ser
6. Marina Lima - Revolta
7. Marina Lima - Literalmente louca
8. Marina Lima - Não há cabeça
9. Marina Lima - Memória fora de hora
10. Marina Lima - Muito

foobar2000 1.6.2 / Dynamic Range Meter 1.1.1
log date: 2021-06-06 19:01:37

––––––––––––––––––––––––––––––––––––––––
Analyzed: Marina Lima / Simples Como Fogo
––––––––––––––––––––––––––––––––––––––––

DR Peak RMS Duration Track
––––––––––––––––––––––––––––––––––––––––
DR13 0.00 dB -15.29 dB 3:57 01-Solidão
DR13 -0.56 dB -15.59 dB 2:56 02-Transas de amor
DR11 -2.59 dB -18.05 dB 3:50 03-A chave do mundo
DR12 -0.43 dB -14.46 dB 3:12 04-Tão fácil
DR12 -0.27 dB -15.51 dB 3:44 05-Maneira de ser
DR12 -2.40 dB -16.78 dB 3:32 06-Revolta
DR12 -0.50 dB -14.04 dB 2:33 07-Literalmente louca
DR14 -0.58 dB -18.44 dB 5:05 08-Não há cabeça
DR13 -0.90 dB -16.28 dB 4:06 09-Memória fora de hora
DR11 -0.91 dB -13.71 dB 2:00 10-Muito
––––––––––––––––––––––––––––––––––––––––

Number of tracks: 10
Official DR value: DR12

Samplerate: 48000 Hz
Channels: 2
Bits per sample: 24
Bitrate: 1628 kbps
Codec: FLAC
================================================================================



Thanks to the Original customer.