Marvin Gaye - Marvin Gaye Live! (1974/2021) [Official Digital Download 24/192]

Posted By: pyatak
Marvin Gaye - Marvin Gaye Live! (1974/2021) [Official Digital Download 24/192]

Marvin Gaye - Marvin Gaye Live! (1974/2021) [Official Digital Download 24/192]
FLAC (tracks) 24-bit/192 kHz | Front Cover | Time - 43:31 minutes | 1,88 GB
Soul | Label: UNI/MOTOWN, Official Digital Download

Marvin Gaye Live! is the second live album issued by soul musician Marvin Gaye. In 1973, Gaye released his greatest-selling album, Let's Get It On, which made him the biggest-selling Motown artist during his lifetime. Motown Records, Gaye's label for over a decade, had long wanted Gaye to promote his recordings with a national tour but the rebellious singer, who had begun suffering from stage fright after the collapse of his beloved singing duet partner Tammi Terrell in October 1967 and whom later died of a brain tumor two and a half years later in March 1970, had refused to return to live performing only agreeing to do it only at sporadic times including when he was honored in his hometown in Washington, D.C. in May 1972 and performed at the Kennedy Center and briefly on the 1973 film, Save the Children. But with the success of Let's Get It On and Gaye's now-increasing spending habit, he reluctantly agreed to start touring again in the beginning of 1974. After rescheduling the concert for January 4, 1974, at the Oakland Coliseum Arena, Gaye took the stage in front of 14,000-plus screaming fans. He performed a new song which he dedicated to his girlfriend Janis Hunter titled "Jan" and performed most of his 1970s repertoire, only including his 1960s classics in a sped-up "Fossil Medley". Throughout his tours, Gaye began developing performance anxiety and had feared the public reception. To test the public, he reportedly forced his younger brother Frankie to come out before being confident enough to come out afterwards. The biggest fan response on the album came when Gaye retooled his song, "Distant Lover", into a slower-paced version starting the song out as he segued from "Theme from Trouble Man" (seventh track from his Trouble Man album) to the song itself producing female shrieks, which kept up as Gaye continued his show-stopping performance of the song. The performance soon became a Gaye trademark onstage and the singer continued to perform the song in that similar style until his final performances in the 1980s. (Wiki)

Commercially, the album was a big success and proved that, despite his fears, Gaye was still as convincing as a live performer as he was as a recording artist during the early-1970s. On August 31, 1974, the album peaked at #1 on the R&B album chart for two weeks while resting at #8 on the pop album chart. The live version of "Distant Lover" created such a frenetic response that Motown issued the live song as a single where it reached #28 on the pop chart and #15 on the R&B charts in the late summer of 1974. The album would go on to sell over a million copies.

The live album earned Gaye his fifth Grammy Award nomination for Best Male R&B Vocal Performance at the 17th Annual Grammy Awards, losing to "Boogie on Reggae Woman" by fellow Motown artist and close friend Stevie Wonder.

TRACKLIST

1. Marvin Gaye - Introduction (Live At Oakland Coliseum, CA/1974)
2. Marvin Gaye - Overture (Live At Oakland Coliseum, CA/1974)
3. Marvin Gaye - Trouble Man (Live At Oakland Coliseum, CA/1974)
4. Marvin Gaye - Inner City Blues (Make Me Wanna Holler) (Live At Oakland Coliseum, CA/1974)
5. Marvin Gaye - Distant Lover (Live At Oakland Coliseum, CA/1974)
6. Marvin Gaye - Jan (Live At Oakland Coliseum, CA/1974)
7. Marvin Gaye - Fossil Medley (Live At Oakland Coliseum, CA/1974)
8. Marvin Gaye - Let's Get It On (Live At Oakland Coliseum, CA/1974)
9. Marvin Gaye - What's Going On (Live At Oakland Coliseum, CA/1974)

foobar2000 1.6.2 / Dynamic Range Meter 1.1.1
log date: 2021-03-27 15:43:17

––––––––––––––––––––––––––––––––––––––––
Analyzed: Marvin Gaye / Marvin Gaye Live!
––––––––––––––––––––––––––––––––––––––––

DR Peak RMS Duration Track
––––––––––––––––––––––––––––––––––––––––
DR8 -0.29 dB -12.48 dB 0:34 01-Introduction (Live At Oakland Coliseum, CA/1974)
DR9 -0.29 dB -10.97 dB 2:25 02-Overture (Live At Oakland Coliseum, CA/1974)
DR9 -0.29 dB -10.72 dB 6:38 03-Trouble Man (Live At Oakland Coliseum, CA/1974)
DR9 -0.29 dB -10.89 dB 4:29 04-Inner City Blues (Make Me Wanna Holler) (Live At Oakland Coliseum, CA/1974)
DR8 -0.29 dB -9.84 dB 5:11 05-Distant Lover (Live At Oakland Coliseum, CA/1974)
DR8 -0.29 dB -10.25 dB 3:11 06-Jan (Live At Oakland Coliseum, CA/1974)
DR10 -0.29 dB -11.34 dB 11:35 07-Fossil Medley (Live At Oakland Coliseum, CA/1974)
DR8 -0.29 dB -9.09 dB 4:45 08-Let's Get It On (Live At Oakland Coliseum, CA/1974)
DR8 -0.29 dB -9.60 dB 4:48 09-What's Going On (Live At Oakland Coliseum, CA/1974)
––––––––––––––––––––––––––––––––––––––––

Number of tracks: 9
Official DR value: DR9

Samplerate: 192000 Hz
Channels: 2
Bits per sample: 24
Bitrate: 6190 kbps
Codec: FLAC
================================================================================



Thanks to the Original customer.