Matthias Roth - Miroirs - Works by Karol Szymanowski and Maurice Ravel (2018) [Official Digital Download 24/96]

Posted By: SERTiL
Matthias Roth - Miroirs - Works by Karol Szymanowski and Maurice Ravel (2018) [Official Digital Download 24/96]

Matthias Roth - Miroirs - Works by Karol Szymanowski and Maurice Ravel (2018)
FLAC (tracks) 24-bit/96 kHz | Time - 62:44 minutes | 0.98 GB
Studio Master, Official Digital Download | Artwork: Digital Booklet

The two composers, who represent their country as figureheads of color and sound, have almost identical dates in their lives: The Pole Karol Szymanowski and the Frenchman Maurice Ravel. The Swiss pianist Matthias Roth has put together an exquisite program for his GENUIN debut CD, which he has recorded with a crystal-clear sound and lively articulation that is unrivaled in terms of quality. You don't know what to admire more: The great works of Ravel that one knows well but experiences anew, or the unexplored beauty of Szymanowski's works, which are worth the exciting voyage of discovery in every moment!

Tracklist:
1. Variations in B-Flat Minor, Op. 3: Tema. Andantino tranquillo e semplice (00:52)
2. Variations in B-Flat Minor, Op. 3: Var. 1, L'istesso tempo (00:59)
3. Variations in B-Flat Minor, Op. 3: Var. 2, Agitato (00:30)
4. Variations in B-Flat Minor, Op. 3: Var. 3, Andante quasi tempo di mazurka (01:17)
5. Variations in B-Flat Minor, Op. 3: Var. 4, Con moto (00:13)
6. Variations in B-Flat Minor, Op. 3: Var. 5, Lento dolce (00:58)
7. Variations in B-Flat Minor, Op. 3: Var. 6, Scherzando. Molto vivace (00:14)
8. Variations in B-Flat Minor, Op. 3: Var. 7, Allegro agitato ed energico (00:28)
9. Variations in B-Flat Minor, Op. 3: Var. 8, Meno mosso. Mesto (01:22)
10. Variations in B-Flat Minor, Op. 3: Var. 9, Tempo di valse. Grazioso (00:42)
11. Variations in B-Flat Minor, Op. 3: Var. 10, Andantino (00:39)
12. Variations in B-Flat Minor, Op. 3: Var. 11, Andantino dolce affettuoso (01:09)
13. Variations in B-Flat Minor, Op. 3: Var. 12, Allegro con fuoco (01:52)
14. 4 Studies, Op. 4: No. 3, Andante in modo d'una canzona (04:13)
15. 9 Preludes, Op. 1: No. 1, Andante ma non troppo (02:08)
16. 9 Preludes, Op. 1: No. 2, Andante con moto (02:15)
17. 9 Preludes, Op. 1: No. 3, Andantino (01:16)
18. 9 Preludes, Op. 1: No. 4, Andantino con moto (01:20)
19. 9 Preludes, Op. 1: No. 5, Allegro molto impetuoso (01:15)
20. 9 Preludes, Op. 1: No. 6, Lento mesto (02:12)
21. 9 Preludes, Op. 1: No. 7, Moderato (02:34)
22. 9 Preludes, Op. 1: No. 8, Andante ma non troppo (02:29)
23. 9 Preludes, Op. 1: No. 9, Lento mesto (02:24)
24. Miroirs, M. 43: No. 1, Noctuelles (04:56)
25. Miroirs, M. 43: No. 2, Oiseaux tristes (04:01)
26. Miroirs, M. 43: No. 3, Une barque sur l'océan (07:46)
27. Miroirs, M. 43: No. 4, Alborada del gracioso (07:01)
28. Miroirs, M. 43: No. 5, La vallée des cloches (05:55)

Personnel:
Matthias Roth, piano

foobar2000 1.3.7 / Dynamic Range Meter 1.1.1
log date: 2018-09-10 18:01:33

––––––––––––––––––––––––––––––––––––––––
Analyzed: Matthias Roth / Szymanowski & Ravel: Piano Works
––––––––––––––––––––––––––––––––––––––––

DR Peak RMS Duration Track
––––––––––––––––––––––––––––––––––––––––
DR13 -8.37 dB -26.10 dB 0:52 01-Variations in B-Flat Minor, Op. 3: Tema. Andantino tranquillo e semplice
DR12 -5.56 dB -23.69 dB 0:59 02-Variations in B-Flat Minor, Op. 3: Var. 1, L'istesso tempo
DR11 -2.35 dB -16.06 dB 0:30 03-Variations in B-Flat Minor, Op. 3: Var. 2, Agitato
DR12 -8.75 dB -26.11 dB 1:17 04-Variations in B-Flat Minor, Op. 3: Var. 3, Andante quasi tempo di mazurka
DR11 -3.44 dB -19.22 dB 0:13 05-Variations in B-Flat Minor, Op. 3: Var. 4, Con moto
DR10 -4.80 dB -24.65 dB 0:58 06-Variations in B-Flat Minor, Op. 3: Var. 5, Lento dolce
DR13 -5.89 dB -21.18 dB 0:14 07-Variations in B-Flat Minor, Op. 3: Var. 6, Scherzando. Molto vivace
DR10 -2.35 dB -16.08 dB 0:28 08-Variations in B-Flat Minor, Op. 3: Var. 7, Allegro agitato ed energico
DR13 -9.80 dB -28.77 dB 1:22 09-Variations in B-Flat Minor, Op. 3: Var. 8, Meno mosso. Mesto
DR10 -6.19 dB -22.84 dB 0:42 10-Variations in B-Flat Minor, Op. 3: Var. 9, Tempo di valse. Grazioso
DR15 -11.23 dB -30.58 dB 0:39 11-Variations in B-Flat Minor, Op. 3: Var. 10, Andantino
DR13 -6.21 dB -24.59 dB 1:09 12-Variations in B-Flat Minor, Op. 3: Var. 11, Andantino dolce affettuoso
DR11 -0.50 dB -14.64 dB 1:52 13-Variations in B-Flat Minor, Op. 3: Var. 12, Allegro con fuoco
DR15 -0.84 dB -21.55 dB 4:13 14-4 Studies, Op. 4: No. 3, Andante in modo d'una canzona
DR13 -1.44 dB -22.97 dB 2:08 15-9 Preludes, Op. 1: No. 1, Andante ma non troppo
DR13 -5.19 dB -23.91 dB 2:15 16-9 Preludes, Op. 1: No. 2, Andante con moto
DR11 -10.24 dB -28.37 dB 1:16 17-9 Preludes, Op. 1: No. 3, Andantino
DR13 -6.10 dB -23.82 dB 1:20 18-9 Preludes, Op. 1: No. 4, Andantino con moto
DR11 -0.50 dB -15.34 dB 1:15 19-9 Preludes, Op. 1: No. 5, Allegro molto impetuoso
DR16 -2.80 dB -26.06 dB 2:12 20-9 Preludes, Op. 1: No. 6, Lento mesto
DR13 -1.25 dB -21.61 dB 2:34 21-9 Preludes, Op. 1: No. 7, Moderato
DR13 -4.00 dB -23.82 dB 2:29 22-9 Preludes, Op. 1: No. 8, Andante ma non troppo
DR14 -2.17 dB -23.72 dB 2:24 23-9 Preludes, Op. 1: No. 9, Lento mesto
DR15 -3.25 dB -23.28 dB 4:56 24-Miroirs, M. 43: No. 1, Noctuelles
DR16 -3.64 dB -27.24 dB 4:01 25-Miroirs, M. 43: No. 2, Oiseaux tristes
DR16 -0.50 dB -21.43 dB 7:46 26-Miroirs, M. 43: No. 3, Une barque sur l'océan
DR15 -0.50 dB -20.44 dB 7:01 27-Miroirs, M. 43: No. 4, Alborada del gracioso
DR15 -8.18 dB -28.43 dB 5:55 28-Miroirs, M. 43: No. 5, La vallée des cloches
––––––––––––––––––––––––––––––––––––––––

Number of tracks: 28
Official DR value: DR13

Samplerate: 96000 Hz
Channels: 2
Bits per sample: 24
Bitrate: 2150 kbps
Codec: FLAC
================================================================================


Thanks to the Original customer.