Mel Torme, Artie Shaw & The Meltones - Mel Torme with the Meltones and Artie Shaw (Remastered) (1946/2019) [24/44]

Posted By: SERTiL
Mel Torme, Artie Shaw & The Meltones - Mel Torme with the Meltones and Artie Shaw (Remastered) (1946/2019) [24/44]

Mel Torme, Artie Shaw & The Meltones - Mel Torme with the Meltones and Artie Shaw (Remastered) (1946/2019)
FLAC (tracks) 24-bit/44.1 kHz | Time - 29:14 minutes | 263 MB
Studio Master, Official Digital Download | Artwork: Front Cover

Acknowledged as one the greatest jazz vocalists of all time, Mel Tormé was admirably nick-named "The Velvet Fog" for his ultra smooth vocal stylings. A gifted composer as well, Torme penned one of the most famous songs of all time; the perennial "Christmas Song (Chestnuts Roasting On An Open Fire)." In 1944 he formed the vocal quintet "Mel Tormé and His Mel-Tones," who were among the first jazz-influenced vocal groups which became the model for The Four Freshman and The Manhattan Transfer. Recorded with Artie Shaw's group in 1946, this classic recording captures Mel and his early group at their vocal best. All selections newly remastered.

Tracklist:
1. For You, For Me, Forevermore
2. Changing My Tune
3. They Can't Convince Me
4. Guilty
5. And So To Bed
6. I Believe
7. Don't You Believe it
8. I've Got The Sun In The Morning
9. Along With Me
10. Get Out Of Town

foobar2000 1.3.7 / Dynamic Range Meter 1.1.1
log date: 2019-02-17 13:40:07

––––––––––––––––––––––––––––––––––––––––
Analyzed: Mel Torme, Artie Shaw & The Meltones / Mel Torme with the Meltones and Artie Shaw (Remastered)
––––––––––––––––––––––––––––––––––––––––

DR Peak RMS Duration Track
––––––––––––––––––––––––––––––––––––––––
DR9 -1.34 dB -12.39 dB 3:00 01-For You, For Me, Forevermore
DR10 -1.24 dB -12.48 dB 2:37 02-Changing My Tune
DR9 -1.26 dB -13.18 dB 3:06 03-They Can't Convince Me
DR9 -1.64 dB -12.94 dB 3:05 04-Guilty
DR10 -1.21 dB -13.93 dB 2:37 05-And So To Bed
DR9 -1.99 dB -13.38 dB 2:46 06-I Believe
DR10 -1.22 dB -12.74 dB 2:39 07-Don't You Believe it
DR10 -1.23 dB -12.57 dB 2:59 08-I've Got The Sun In The Morning
DR8 -1.32 dB -11.78 dB 3:14 09-Along With Me
DR9 -1.94 dB -13.86 dB 3:18 10-Get Out Of Town
––––––––––––––––––––––––––––––––––––––––

Number of tracks: 10
Official DR value: DR9

Samplerate: 44100 Hz
Channels: 2
Bits per sample: 24
Bitrate: 1244 kbps
Codec: FLAC
================================================================================


Thanks to the Original customer.