Michael Bolton - Songs of Cinema (2017) [Official Digital Download]

Posted By: SERTiL
Michael Bolton - Songs of Cinema (2017) [Official Digital Download]

Michael Bolton - Songs of Cinema (2017)
FLAC (tracks) 24-bit/44.1 kHz | Time - 32:41 minutes | 381 MB
Studio Master, Official Digital Download | Artwork: Front Cover

2017 release, the 27th album from the Grammy Award-winning singer/songwriter who has sold more than 65 million records worldwide. Songs Of Cinema is a tribute to beloved songs from the world's most iconic films. Michael Bolton has sold more than 65 million records worldwide. He has won two Grammys for Best Pop Male Vocal Performance (nominated four times), six American Music Awards, and a Star on the Hollywood Walk of Fame. As a songwriter, he has earned over 24 BMI and ASCAP Awards, including Songwriter of the Year, nine Million-Air awards, and the Hitmakers Award from the Songwriters Hall of Fame

Tracklist:
1. When A Man Loves A Woman (2017 Version)
2. Stand By Me
3. I've Got A Woman
4. I Will Always Love You (feat. Dolly Parton)
5. Old Time Rock & Roll
6. Heard It Through The Grapevine
7. Cupid
8. Somewhere Over The Rainbow
9. As Time Goes
10. Jack Sparrow (Ballad)

foobar2000 1.3.7 / Dynamic Range Meter 1.1.1
log date: 2017-11-07 21:33:17

––––––––––––––––––––––––––––––––––––––––
Analyzed: Michael Bolton / Songs of Cinema
––––––––––––––––––––––––––––––––––––––––

DR Peak RMS Duration Track
––––––––––––––––––––––––––––––––––––––––
DR5 0.00 dB -7.53 dB 3:56 01-When a Man Loves a Woman (2017 Version)
DR7 -0.01 dB -10.05 dB 2:57 02-Stand by Me
DR7 0.00 dB -7.80 dB 3:22 03-I've Got a Woman
DR8 0.00 dB -10.36 dB 3:36 04-I Will Always Love You
DR6 0.00 dB -6.73 dB 3:08 05-Old Time Rock & Roll
DR7 0.00 dB -8.42 dB 4:07 06-Heard It Through the Grapevine
DR7 -0.03 dB -9.92 dB 3:10 07-Cupid
DR7 -0.14 dB -10.25 dB 3:28 08-Somewhere over the Rainbow
DR8 -0.19 dB -9.96 dB 3:18 09-As Time Goes By
DR6 -0.09 dB -9.99 dB 1:44 10-Jack Sparrow (Ballad)
––––––––––––––––––––––––––––––––––––––––

Number of tracks: 10
Official DR value: DR7

Samplerate: 44100 Hz
Channels: 2
Bits per sample: 24
Bitrate: 1454 kbps
Codec: FLAC
================================================================================


Thanks to the Original customer.