Tags
Language
Tags

Michael Oman, Amandine Beyer, Austrian Baroque Company - London Calling (2020) [Official Digital Download]

Posted By: pyatak
Michael Oman, Amandine Beyer, Austrian Baroque Company - London Calling (2020) [Official Digital Download]

Michael Oman, Amandine Beyer, Austrian Baroque Company - London Calling (2020) [Official Digital Download]
FLAC (tracks) 24-bit/44.1 kHz | Front Cover | Time - 01:08:28 minutes | 739 MB
Classical | Label: Fra Bernardo, Official Digital Download

This new release gives us a small impression of what was played for entertainment in the late 17th and early 18th centuries in the houses of London's high society. The variety of the programme ranges from typical British melancholy to ostinato melodies by Nicola Matteis, an Italian violinist who, like Handel, who is also represented here, enriched the musical life on the Thames as a musical guest worker and Englishman of choice, to the exuberance of the 'Ayres'. The famous baroque violinist Amandine Beyer and the recorder player Michael Oman are supported by the ABC - Austrian Baroque Company.

TRACKLIST

1. Michael Oman, Amandine Beyer, Austrian Baroque Company - Gavotta con divisioni
2. Michael Oman, Amandine Beyer, Austrian Baroque Company - Adagio - Presto
3. Michael Oman, Amandine Beyer, Austrian Baroque Company - Canciona dicha la preciosa
4. Michael Oman, Amandine Beyer, Austrian Baroque Company - Su Gallarda
5. Michael Oman, Amandine Beyer, Austrian Baroque Company - Aria tra la maniera Francese, è la Spagnola
6. Michael Oman, Amandine Beyer, Austrian Baroque Company - Diverse bizzarrie sopra la Vecchia Sarabanda ò pur Ciaccona
7. Michael Oman, Amandine Beyer, Austrian Baroque Company - Fantazia No. 5
8. Michael Oman, Amandine Beyer, Austrian Baroque Company - Fantazia No. 1
9. Michael Oman, Amandine Beyer, Austrian Baroque Company - Fantazia No. 2
10. Michael Oman, Amandine Beyer, Austrian Baroque Company - Contr'aria
11. Michael Oman, Amandine Beyer, Austrian Baroque Company - Fancy
12. Michael Oman, Amandine Beyer, Austrian Baroque Company - Scaramuccia
13. Michael Oman, Amandine Beyer, Austrian Baroque Company - Aria burlesca con molte bizzarrie
14. Michael Oman, Amandine Beyer, Austrian Baroque Company - Gavotta
15. Michael Oman, Amandine Beyer, Austrian Baroque Company - Prélude & Capriccio, HWV 571: I. Prélude
16. Michael Oman, Amandine Beyer, Austrian Baroque Company - Prélude & Capriccio, HWV 571: II. Capriccio
17. Michael Oman, Amandine Beyer, Austrian Baroque Company - Preludio
18. Michael Oman, Amandine Beyer, Austrian Baroque Company - Fantasia a 3
19. Michael Oman, Amandine Beyer, Austrian Baroque Company - Fantazia No. 3
20. Michael Oman, Amandine Beyer, Austrian Baroque Company - The Fairy Queen, Z. 629: The Plaint (Arr. for Violin, Recorder & Chamber Ensemble)
21. Michael Oman, Amandine Beyer, Austrian Baroque Company - Aria Amorosa
22. Michael Oman, Amandine Beyer, Austrian Baroque Company - Ground in D Minor la sol re per far la mano
23. Michael Oman, Amandine Beyer, Austrian Baroque Company - Grave
24. Michael Oman, Amandine Beyer, Austrian Baroque Company - Ground after the Scotch humour

foobar2000 1.3.16 / Dynamic Range Meter 1.1.1
log date: 2020-05-22 00:47:56

––––––––––––––––––––––––––––––––––––––––
Analyzed: Michael Oman, Amandine Beyer, Austrian Baroque Company / London Calling
––––––––––––––––––––––––––––––––––––––––

DR Peak RMS Duration Track
––––––––––––––––––––––––––––––––––––––––
DR8 -0.51 dB -10.38 dB 2:39 01-Gavotta con divisioni
DR8 -0.51 dB -10.74 dB 2:20 02-Adagio - Presto
DR11 -0.51 dB -13.04 dB 5:40 03-Canciona dicha la preciosa
DR10 -0.51 dB -12.34 dB 2:03 04-Su Gallarda
DR9 -0.51 dB -12.63 dB 2:02 05-Aria tra la maniera Francese, è la Spagnola
DR9 -0.51 dB -12.57 dB 3:55 06-Diverse bizzarrie sopra la Vecchia Sarabanda ò pur Ciaccona
DR8 -0.51 dB -11.48 dB 3:26 07-Fantazia No. 5
DR9 -0.51 dB -11.71 dB 2:41 08-Fantazia No. 1
DR9 -0.51 dB -11.75 dB 2:03 09-Fantazia No. 2
DR11 -0.52 dB -13.29 dB 2:40 10-Contr'aria
DR9 -0.51 dB -11.60 dB 1:04 11-Fancy
DR8 -0.51 dB -11.49 dB 1:35 12-Scaramuccia
DR12 -0.86 dB -15.29 dB 3:53 13-Aria burlesca con molte bizzarrie
DR9 -0.51 dB -12.47 dB 2:07 14-Gavotta
DR10 -7.90 dB -20.61 dB 2:02 15-Prélude & Capriccio, HWV 571: I. Prélude
DR12 -4.62 dB -17.64 dB 2:47 16-Prélude & Capriccio, HWV 571: II. Capriccio
DR10 -0.53 dB -12.93 dB 1:46 17-Preludio
DR8 -0.51 dB -10.64 dB 2:12 18-Fantasia a 3
DR9 -0.51 dB -12.69 dB 2:10 19-Fantazia No. 3
DR10 -0.52 dB -12.83 dB 6:35 20-The Fairy Queen, Z. 629: The Plaint (Arr. for Violin, Recorder & Chamber Ensemble)
DR10 -0.51 dB -12.44 dB 4:07 21-Aria Amorosa
DR10 -0.51 dB -12.53 dB 3:12 22-Ground in D Minor la sol re per far la mano
DR11 -0.51 dB -14.02 dB 2:22 23-Grave
DR8 -0.51 dB -11.09 dB 3:09 24-Ground after the Scotch humour
––––––––––––––––––––––––––––––––––––––––

Number of tracks: 24
Official DR value: DR9

Samplerate: 44100 Hz
Channels: 2
Bits per sample: 24
Bitrate: 1513 kbps
Codec: FLAC
================================================================================



Thanks to the Original customer.