Tags
Language
Tags

Michael Spyres - Amici e Rivali (2020) [Official Digital Download 24/96]

Posted By: pyatak
Michael Spyres - Amici e Rivali (2020) [Official Digital Download 24/96]

Michael Spyres - Amici e Rivali (2020) [Official Digital Download 24/96]
FLAC (tracks) 24-bit/96 kHz | Front Cover | Time - 01:18:42 minutes | 1,39 GB
Classical | Label: Warner Classics, Official Digital Download

Two of today’s most brilliant tenors, Michael Spyres and Lawrence Brownlee, strike sparks off each other as they celebrate the star tenors of Rossini’s time, such as Andrea Nozzari, Giovanni David, and Manuel García. Amici e Rivali – ‘Friends and Rivals’ – comprises arias, duets and trios from seven of the composer’s operas, including the ever-popular Il barbiere di Siviglia and the rarely heard Ricciardo e Zoraide. The ‘duelling tenors’ are joined by the effervescent Irish mezzo-soprano Tara Erraught, the prize-winning young Spanish tenor Xabier Anduaga, I Virtuosi Italiani and conductor Corrado Rovaris.

"This is impressive: two superb Rossinians in music written for the virtuoso tenors David and Nozzari in the composer’s nine Neapolitan operas from the 1810s. Brownlee has a brighter tone than Spyres, who sings Figaro in the Barber of Seville duet, but the latter shines in the darker French Rossini." (Sunday Times)

TRACKLIST

1. Michael Spyres - Il barbiere di Siviglia, Act 1: "All'idea di quel metallo" (Figaro, Almaviva)
2. Lawrence Brownlee - Ricciardo e Zoraide, Act 1: "S'ella mi è ognor fedele" (Ricciardo)
3. Lawrence Brownlee - Ricciardo e Zoraide, Act 1: "Qual sarà mai la gioia" (Ricciardo, Ernesto)
4. Michael Spyres - Ricciardo e Zoraide, Act 2: "Donala a questo core" (Agorante, Ricciardo)
5. Michael Spyres - Ricciardo e Zoraide, Act 2: "Teco or sarà" (Agorante, Ricciardo)
6. Lawrence Brownlee - La donna del lago, Act 2: "Nume! se a' miei sospiri" (Uberto, Elena)
7. Michael Spyres - La donna del lago, Act 2: "Qual pena in me già desta" (Uberto, Rodrigo, Elena)
8. Michael Spyres - Elisabetta, regina d'Inghilterra, Act 2: "Deh! Scusa i trasporti" (Leicester, Norfolk)
9. Michael Spyres - Otello, Act 2: "Non m'inganno" - "Al mio rivale" (Otello, Iago)
10. Michael Spyres - Otello, Act 2: "Ah! vieni, nel tuo sangue vendicherò le offese" (Otello, Rodrigo)
11. Michael Spyres - Otello, Act 2: "Che fiero punto e questo" (Otello, Rodrigo, Desdemona)
12. Lawrence Brownlee - Le siège de Corinthe, Act 3: "Grand Dieu, faut-il qu'un peuple" (Néoclès)
13. Michael Spyres - Le siège de Corinthe, Act 3: "Cher Cléomène" (Cléomène, Néoclès)
14. Michael Spyres - Le siège de Corinthe, Act 3: "Céleste providence" (Cléomène, Néoclès, Pamyra)
15. Michael Spyres - Armida, Act 3: "In quale aspetto imbelle" (Rinaldo, Carlo, Ubaldo)

foobar2000 1.6.2 / Dynamic Range Meter 1.1.1
log date: 2020-11-16 09:11:36

––––––––––––––––––––––––––––––––––––––––
Analyzed: Lawrence Brownlee / Amici e Rivali (1-4)
Michael Spyres / Amici e Rivali (5-15)
––––––––––––––––––––––––––––––––––––––––

DR Peak RMS Duration Track
––––––––––––––––––––––––––––––––––––––––
DR13 -1.86 dB -21.23 dB 3:38 02-Ricciardo e Zoraide, Act 1: "S'ella mi è ognor fedele" (Ricciardo)
DR13 -2.12 dB -18.74 dB 3:25 03-Ricciardo e Zoraide, Act 1: "Qual sarà mai la gioia" (Ricciardo, Ernesto)
DR13 -0.49 dB -18.92 dB 4:10 06-La donna del lago, Act 2: "Nume! se a' miei sospiri" (Uberto, Elena)
DR12 -0.44 dB -16.56 dB 4:50 12-Le siège de Corinthe, Act 3: "Grand Dieu, faut-il qu'un peuple" (Néoclès)
DR15 -0.52 dB -20.12 dB 8:41 01-Il barbiere di Siviglia, Act 1: "All'idea di quel metallo" (Figaro, Almaviva)
DR13 -0.50 dB -19.75 dB 5:58 04-Ricciardo e Zoraide, Act 2: "Donala a questo core" (Agorante, Ricciardo)
DR13 -0.48 dB -16.99 dB 3:26 05-Ricciardo e Zoraide, Act 2: "Teco or sarà" (Agorante, Ricciardo)
DR11 -0.47 dB -15.74 dB 1:43 07-La donna del lago, Act 2: "Qual pena in me già desta" (Uberto, Rodrigo, Elena)
DR13 -0.48 dB -17.60 dB 4:19 08-Elisabetta, regina d'Inghilterra, Act 2: "Deh! Scusa i trasporti" (Leicester, Norfolk)
DR14 -1.04 dB -19.67 dB 7:01 09-Otello, Act 2: "Non m'inganno" - "Al mio rivale" (Otello, Iago)
DR13 -0.49 dB -17.02 dB 4:47 10-Otello, Act 2: "Ah! vieni, nel tuo sangue vendicherò le offese" (Otello, Rodrigo)
DR12 -0.47 dB -17.18 dB 6:50 11-Otello, Act 2: "Che fiero punto e questo" (Otello, Rodrigo, Desdemona)
DR15 -0.49 dB -21.14 dB 5:37 13-Le siège de Corinthe, Act 3: "Cher Cléomène" (Cléomène, Néoclès)
DR13 -0.41 dB -18.30 dB 5:28 14-Le siège de Corinthe, Act 3: "Céleste providence" (Cléomène, Néoclès, Pamyra)
DR13 -0.47 dB -18.79 dB 8:57 15-Armida, Act 3: "In quale aspetto imbelle" (Rinaldo, Carlo, Ubaldo)
––––––––––––––––––––––––––––––––––––––––

Number of tracks: 15
Official DR value: DR13

Samplerate: 96000 Hz
Channels: 2
Bits per sample: 24
Bitrate: 2485 kbps
Codec: FLAC
================================================================================



Thanks to the Original customer.