Mike Baggetta, Jim Keltner, Mike Watt - Wall of Flowers (2019) [Official Digital Download]

Posted By: pyatak
Mike Baggetta, Jim Keltner, Mike Watt - Wall of Flowers (2019) [Official Digital Download]

Mike Baggetta, Jim Keltner, Mike Watt - Wall of Flowers (2019) [Official Digital Download]
FLAC (tracks) 24-bit/44.1 kHz | Front Cover | Time - 41:35 minutes | 416 MB
Jazz, Rock | Label: Joyful Noise Recordings & BIG EGO Records, Official Digital Download

“NY Guitar poet Mike Baggetta’s new recording with his potent trio veers daringly and compellingly from patient, elegiac freedom to searing, oozing sludge rock without the slightest hesitation or apology. One cannot resist its myriad charms. Cool!” -Nels Cline, Guitarist
“Mike Baggetta makes stealthy, mysterious music … he’s trying to do something personal with collective improvisation without ever getting in the way of beauty.” -Ben Ratliff, New York Times
“…a kind of post-Frisellian sonic explorer … with his wild whammy-bar articulations, ambient looping and rippling arpeggios … full of subversive surprises, hellacious skronking, string-scraping and a general hornets’ nest of fuzz-toned dissonance” -Bill Milkowski, DownBeat Magazine / Slate Magazine _____ It has been said that Mike Baggetta is “a guitarist of slippery proficiency” (New York Times), that his performances are “totally compelling” (Jazz Journal, UK) and that “his melodic sense is truly beautiful.” (JazzReview.com)

TRACKLIST

01. Mike Baggetta, Jim Keltner, Mike Watt - Hospital Song (Intro)
02. Mike Baggetta, Jim Keltner, Mike Watt - Hospital Song
03. Mike Baggetta, Jim Keltner, Mike Watt - Blue Velvet (Solo)
04. Mike Baggetta, Jim Keltner, Mike Watt - I Am Not a Data Point
05. Mike Baggetta, Jim Keltner, Mike Watt - Of Breads and Rivers
06. Mike Baggetta, Jim Keltner, Mike Watt - Dirty Smell of Dying
07. Mike Baggetta, Jim Keltner, Mike Watt - Blue Velvet
08. Mike Baggetta, Jim Keltner, Mike Watt - Wall of Flowers

foobar2000 1.3.16 / Dynamic Range Meter 1.1.1
log date: 2019-03-15 12:15:07

––––––––––––––––––––––––––––––––––––––––
Analyzed: Mike Baggetta, Jim Keltner, Mike Watt / Wall of Flowers
––––––––––––––––––––––––––––––––––––––––

DR Peak RMS Duration Track
––––––––––––––––––––––––––––––––––––––––
DR12 -3.33 dB -20.25 dB 1:16 01-Hospital Song (Intro)
DR10 -1.15 dB -12.03 dB 5:27 02-Hospital Song
DR14 -6.14 dB -24.65 dB 3:27 03-Blue Velvet (Solo)
DR10 -1.15 dB -11.84 dB 9:53 04-I Am Not a Data Point
DR13 -6.37 dB -26.35 dB 5:42 05-Of Breads and Rivers
DR9 -1.20 dB -12.84 dB 6:04 06-Dirty Smell of Dying
DR14 -5.14 dB -23.24 dB 3:18 07-Blue Velvet
DR11 -1.80 dB -13.98 dB 6:31 08-Wall of Flowers
––––––––––––––––––––––––––––––––––––––––

Number of tracks: 8
Official DR value: DR12

Samplerate: 44100 Hz
Channels: 2
Bits per sample: 24
Bitrate: 1531 kbps
Codec: FLAC
================================================================================



Thanks to the Original customer.