Tags
Language
Tags
December 2022
Su Mo Tu We Th Fr Sa
27 28 29 30 1 2 3
4 5 6 7 8 9 10
11 12 13 14 15 16 17
18 19 20 21 22 23 24
25 26 27 28 29 30 31

Miles Davis - Kind Of Blue (Includes Pitch Corrected Tracks) (1959/2022) [Official Digital Download 24/192]

Posted By: pyatak
Miles Davis - Kind Of Blue (Includes Pitch Corrected Tracks) (1959/2022) [Official Digital Download 24/192]

Miles Davis - Kind Of Blue (Includes Pitch Corrected Tracks) (1959/2022) [Official Digital Download 24/192]
FLAC (tracks) 24-bit/192 kHz | Front Cover | Time - 70:25 minutes | 2,5 GB
Jazz | Studio Master, Official Digital Download

This will be the best sounding digital reissue of Kind of Blue in your collection. There. I said it. No waffling around. This reissue is stunningly good. If you don't run and get it NOW, you will kick yourself for not having done so sooner once you finally hear it.

Transferred directly from an excellent tape in pure DSD256, with no PCM processing, Bob Witrak has created a transfer that is more transparent, more resolving, and more natural sounding than any I have in my rather extended collection of over a dozen different issues. Bob is something of a technical savant when it comes to pulling information off of a reel-to-reel tape. And here he accomplished something very special from a very good tape to which he had access. (No, not the master tape.)

Update 09-11-2022: Bob has given us some more insight to the provenance of this tape. Now posted on his website, he says: "Transferred from a 15ips 2-track tape". There was no retail release of all five tracks on 15ips tape, as far as I know, so this sounds he had access to a safety master or a production master for manufacturing.

TRACKLIST

CD1

1. Miles Davis & company - So What
2. Miles Davis & company - Freddie Freeloader
3. Miles Davis & company - Blue In Green
4. Miles Davis & company - All Blues
5. Miles Davis & company - Flamenco Sketches

CD2 (Corrected Speed Tracks)

1. Miles Davis & company - So What
2. Miles Davis & company - Freddie Freeloader
3. Miles Davis & company - Blue In Green

foobar2000 1.6.2 / Dynamic Range Meter 1.1.1
log date: 2022-10-03 09:37:53

––––––––––––––––––––––––––––––––––––––––
Analyzed: Miles Davis & company / Miles Davis - Kind Of Blue
––––––––––––––––––––––––––––––––––––––––

DR Peak RMS Duration Track
––––––––––––––––––––––––––––––––––––––––
DR15 -0.97 dB -19.53 dB 9:08 01-So What
DR14 -1.55 dB -19.05 dB 9:38 02-Freddie Freeloader
DR14 -4.31 dB -25.36 dB 5:28 03-Blue In Green
DR15 -1.82 dB -21.32 dB 11:36 04-All Blues
DR14 -3.68 dB -24.84 dB 9:31 05-Flamenco Sketches
––––––––––––––––––––––––––––––––––––––––

Number of tracks: 5
Official DR value: DR14

Samplerate: 192000 Hz
Channels: 2
Bits per sample: 24
Bitrate: 5002 kbps
Codec: FLAC
================================================================================

foobar2000 1.6.2 / Dynamic Range Meter 1.1.1
log date: 2022-10-03 09:37:06

––––––––––––––––––––––––––––––––––––––––
Analyzed: Miles Davis & company / Miles Davis - Kind Of Blue
––––––––––––––––––––––––––––––––––––––––

DR Peak RMS Duration Track
––––––––––––––––––––––––––––––––––––––––
DR15 -0.97 dB -19.54 dB 9:24 01-So What
DR14 -1.54 dB -19.05 dB 9:56 02-Freddie Freeloader
DR14 -4.31 dB -25.38 dB 5:41 03-Blue In Green
––––––––––––––––––––––––––––––––––––––––

Number of tracks: 3
Official DR value: DR14

Samplerate: 192000 Hz
Channels: 2
Bits per sample: 24
Bitrate: 4900 kbps
Codec: FLAC
================================================================================



Thanks to the Original customer.