Tags
Language
Tags

Rex Lawson - Milhaud: La bien-Aimée - Stravinsky: l'Oiseau de feu (2018) [Official Digital Download]

Posted By: SERTiL
Rex Lawson - Milhaud: La bien-Aimée - Stravinsky: l'Oiseau de feu (2018) [Official Digital Download]

Rex Lawson, Orchestre national d'Ile-de-France & Enrique Mazzola - Milhaud: La bien-Aimée - Stravinsky: l'Oiseau de feu (2018)
FLAC (tracks) 24-bit/48 kHz | Time - 71:10 minutes | 696 MB
Studio Master, Official Digital Download | Artwork: Digital Booklet

After two albums devoted to Italian bel canto and De Falla's Spain respectively, the Orchestre national d'Île-de-France heads to France and invite us to dance with a third collection dedicated to ballet music created at the Paris Opera. Rare and unfairly overlooked, La Bien aimée is a gem of collage technique, Milhaud's work juxtaposing the music of Schubert and Liszt and arranging it for pianola (player piano) and orchestra. Meanwhile, Stravinsky's Firebird, that incontrovertible masterpiece, transports us to the enchanting world of Russian fairy tales under Enrique Mazzola's exalted baton.

Tracklist:
1. La Bien-Aimée, Op. 101: Ouverture. Sposalizio 07:18
2. La Bien-Aimée, Op. 101: I. Valse. Impromptu 04:56
3. La Bien-Aimée, Op. 101: II. Valse III 08:21
4. La Bien-Aimée, Op. 101: III. Première valse oubliée 03:12
5. La Bien-Aimée, Op. 101: IV. Valse VI 08:58
6. La Bien-Aimée, Op. 101: V. Final. Grand galop chromatique 03:23
7. L'Oiseau de feu, KC 10: I. Introduction (Suite pour orchestre de 1945) 02:46
8. L'Oiseau de feu, KC 10: II. Danse de l'Oiseau de feu (Suite pour orchestre de 1945) 00:18
9. L'Oiseau de feu, KC 10: III. Variations de l'Oiseau de feu (Suite pour orchestre de 1945) 01:16
10. L'Oiseau de feu, KC 10: IV. Pantomime I (Suite pour orchestre de 1945) 00:26
11. L'Oiseau de feu, KC 10: V. Pas de deux. l'Oiseau de feu et Ivan Tsarévitch (Suite pour orchestre de 1945) 04:40
12. L'Oiseau de feu, KC 10: VI. Pantomime II (Suite pour orchestre de 1945) 00:22
13. L'Oiseau de feu, KC 10: VII. Scherzo. Danse des Princesses (Suite pour orchestre de 1945) 02:33
14. L'Oiseau de feu, KC 10: VIII. Pantomime III (Suite pour orchestre de 1945) 01:19
15. L'Oiseau de feu, KC 10: IX. Khorovode des Princesses (Suite pour orchestre de 1945) 04:37
16. L'Oiseau de feu, KC 10: XI. Danse infernale de Kachtcheï et de ses sujets (Suite pour orchestre de 1945) 04:36
17. L'Oiseau de feu, KC 10: XII. Berceuse (Suite pour orchestre de 1945) 03:46
18. L'Oiseau de feu, KC 10: XIII. Finale (Suite pour orchestre de 1945) 03:21
19. La Bien-Aimée, Op. 101: Final : Grand galop chromatique (II) 05:02

Personnel:
Rex Lawson, pianola
Orchestre national d'Ile-de-France
Enrique Mazzola, direction

foobar2000 1.3.7 / Dynamic Range Meter 1.1.1
log date: 2018-05-30 20:52:10

––––––––––––––––––––––––––––––––––––––––
Analyzed: Orchestre National d'Ile-de-France And Enrique Mazzola / Milhaud: La bien-Aimée - Stravinsky: l'Oiseau de feu (1-12)
Orchestre National d'Ile-de-France, Enrique Mazzola And Rex Lawson / Milhaud: La bien-Aimée - Stravinsky: l'Oiseau de feu (13-14)
Orchestre National d'Ile-de-France, Rex Lawson And Enrique Mazzola / Milhaud: La bien-Aimée - Stravinsky: l'Oiseau de feu (15-19)
––––––––––––––––––––––––––––––––––––––––

DR Peak RMS Duration Track
––––––––––––––––––––––––––––––––––––––––
DR10 -13.04 dB -30.44 dB 2:47 07-Igor Stravinsky: L'Oiseau de feu, KC 10: I. Introduction (Suite pour orchestre de 1945)
DR11 -5.06 dB -22.95 dB 0:18 08-Igor Stravinsky: L'Oiseau de feu, KC 10: II. Danse de l'Oiseau de feu (Suite pour orchestre de 1945)
DR14 -4.67 dB -24.27 dB 1:16 09-Igor Stravinsky: L'Oiseau de feu, KC 10: III. Variations de l'Oiseau de feu (Suite pour orchestre de 1945)
DR14 -11.42 dB -30.97 dB 0:26 10-Igor Stravinsky: L'Oiseau de feu, KC 10: IV. Pantomime I (Suite pour orchestre de 1945)
DR12 -5.49 dB -24.35 dB 4:40 11-Igor Stravinsky: L'Oiseau de feu, KC 10: V. Pas de deux. l'Oiseau de feu et Ivan Tsarévitch (Suite pour orchestre de 1945)
DR13 -8.38 dB -27.35 dB 0:23 12-Igor Stravinsky: L'Oiseau de feu, KC 10: VI. Pantomime II (Suite pour orchestre de 1945)
DR13 -3.65 dB -24.78 dB 2:33 13-Igor Stravinsky: L'Oiseau de feu, KC 10: VII. Scherzo. Danse des Princesses (Suite pour orchestre de 1945)
DR9 -15.79 dB -31.39 dB 1:20 14-Igor Stravinsky: L'Oiseau de feu, KC 10: VIII. Pantomime III (Suite pour orchestre de 1945)
DR15 -6.38 dB -27.33 dB 4:38 15-Igor Stravinsky: L'Oiseau de feu, KC 10: IX. Khorovode des Princesses (Suite pour orchestre de 1945)
DR13 -0.50 dB -18.18 dB 4:37 16-Igor Stravinsky: L'Oiseau de feu, KC 10: XI. Danse infernale de Kachtcheï et de ses sujets (Suite pour orchestre de 1945)
DR14 -5.86 dB -27.32 dB 3:47 17-Igor Stravinsky: L'Oiseau de feu, KC 10: XII. Berceuse (Suite pour orchestre de 1945)
DR11 -0.50 dB -14.90 dB 3:21 18-Igor Stravinsky: L'Oiseau de feu, KC 10: XIII. Finale (Suite pour orchestre de 1945)
DR14 -4.69 dB -26.42 dB 4:56 02-Franz Liszt & Darius Milhaud: La Bien-Aimée, Op. 101: I. Valse. Impromptu
DR13 -0.52 dB -19.18 dB 8:22 03-Franz Schubert, Darius Milhaud & Franz Liszt: La Bien-Aimée, Op. 101: II. Valse III
DR13 -0.51 dB -19.48 dB 7:18 01-Franz Liszt & Darius Milhaud: La Bien-Aimée, Op. 101: Ouverture. Sposalizio
DR16 -0.64 dB -24.93 dB 3:13 04-Darius Milhaud & Franz Liszt: La Bien-Aimée, Op. 101: III. Première valse oubliée
DR16 -0.51 dB -23.02 dB 8:59 05-Franz Schubert, Darius Milhaud & Franz Liszt: La Bien-Aimée, Op. 101: IV. Valse VI
DR11 -0.51 dB -14.84 dB 3:24 06-Darius Milhaud & Franz Liszt: La Bien-Aimée, Op. 101: V. Final. Grand galop chromatique
DR12 -0.52 dB -16.65 dB 5:03 19-Franz Liszt & Darius Milhaud: La Bien-Aimée, Op. 101: Final : Grand galop chromatique (II)
––––––––––––––––––––––––––––––––––––––––

Number of tracks: 19
Official DR value: DR13

Samplerate: 48000 Hz
Channels: 2
Bits per sample: 24
Bitrate: 1482 kbps
Codec: FLAC
================================================================================


Thanks to the Original customer.