Tags
Language
Tags
June 2024
Su Mo Tu We Th Fr Sa
26 27 28 29 30 31 1
2 3 4 5 6 7 8
9 10 11 12 13 14 15
16 17 18 19 20 21 22
23 24 25 26 27 28 29
30 1 2 3 4 5 6

Minnesota Orchestra - Mahler - Symphony No. 10 in F-Sharp Major "Unfinished" (2021) [Official Digital Download 24/96]

Posted By: pyatak
Minnesota Orchestra - Mahler - Symphony No. 10 in F-Sharp Major "Unfinished" (2021) [Official Digital Download 24/96]

Minnesota Orchestra - Mahler- Symphony No. 10 in F-Sharp Major "Unfinished" (2021) [Official Digital Download 24/96]
FLAC (tracks) 24-bit/96 kHz | Front Cover | Time - 77:06 minutes | 1,24 GB
Classical | Label: BIS, Official Digital Download

Left unfinished at the death of the composer, Gustav Mahler's Tenth Symphony has exerted an enormous fascination on musicologists as well as musicians – a kind of Holy Grail of 20th-century music. Recognized as an intensely personal work, it was initially consigned to respectful oblivion, but over the years, Alma Mahler, the composer’s widow, released more and more of Mahler’s sketches for publication, and gradually it became clear that he had in fact bequeathed an entire five-movement symphony in short score (i.e. written on three or four staves). Of this, nearly half had reached the stage of a draft orchestration, while the rest contained indications of the intended instrumentation. Over the years a number of different completions or performing versions of ‘the Tenth’ have seen the light of day. One of the most often performed and recorded of these is that by Deryck Cooke. Cooke himself insisted that his edition was not a ‘completion’ of the work, but rather a functional presentation of the materials as Mahler left them. Cooke’s performing version of the symphony is the one that Osmo Vanska has chosen to use for the seventh installment in his and the Minnesota Orchestra’s Mahler series, a cycle characterized by an unusual transparency and clarity of sound as well as musical conception.

TRACKLIST

1. Minnesota Orchestra - I. Andante - Adagio
2. Minnesota Orchestra - II. Scherzo. Schnelle Viertel
3. Minnesota Orchestra - III. Purgatorio. Allegretto moderato
4. Minnesota Orchestra - IV. Scherzo. Allegro pesante. Nicht zu schnell
5. Minnesota Orchestra - V. Finale. Langsam, schwer - Allegro moderato

foobar2000 1.6.2 / Dynamic Range Meter 1.1.1
log date: 2021-02-10 18:18:56

––––––––––––––––––––––––––––––––––––––––
Analyzed: Minnesota Orchestra / Mahler: Symphony No. 10 in F-Sharp Major "Unfinished" (Completed by D. Cooke)
––––––––––––––––––––––––––––––––––––––––

DR Peak RMS Duration Track
––––––––––––––––––––––––––––––––––––––––
DR16 -2.77 dB -26.33 dB 26:42 01-I. Andante - Adagio
DR16 -0.53 dB -23.72 dB 11:39 02-II. Scherzo. Schnelle Viertel
DR17 -1.44 dB -25.39 dB 4:23 03-III. Purgatorio. Allegretto moderato
DR16 -0.26 dB -22.83 dB 11:52 04-IV. Scherzo. Allegro pesante. Nicht zu schnell
DR19 -0.26 dB -25.44 dB 23:44 05-V. Finale. Langsam, schwer - Allegro moderato
––––––––––––––––––––––––––––––––––––––––

Number of tracks: 5
Official DR value: DR17

Samplerate: 96000 Hz
Channels: 2
Bits per sample: 24
Bitrate: 2186 kbps
Codec: FLAC
================================================================================



Thanks to the Original customer.