Mirian Conti - Tangorama - An Anthology of 20th Century Tango, Vol. 1 (2021) [Official Digital Download 24/96]

Posted By: pyatak
Mirian Conti - Tangorama - An Anthology of 20th Century Tango, Vol. 1 (2021) [Official Digital Download 24/96]

Mirian Conti - Tangorama - An Anthology of 20th Century Tango, Vol. 1 (2021) [Official Digital Download 24/96]
FLAC (tracks) 24-bit/96 kHz | Front Cover | Time - 60:14 minutes | 976 MB
Classical | Label: Grand Piano, Official Digital Download

This panoramic survey of Argentine tangos shows the genre in all its rich variety of moods and virtuosity. It salutes Angel Villoldo, the father of tango, whose El choclo (The Corncob) is one of the most famous tangos of all time, and charts the musics evolution towards the romanticism and lush harmonies of Augustín Bardi. Improvisatory styles, syncopation and jazz harmonies were introduced by such great composers as José Pascual and Orlando Goñi, whilst Enrique Francini developed his personal qualities of dissonance and rhythmic flair into the 1960s. This survey is the first in a series that will document around one hundred rare and classic tangos, all performed by the Argentine pianist Mirian Conti.

TRACKLIST

01. Mirian Conti - Re fa si (Arr. for Piano)
02. Mirian Conti - Armenonville (Arr. for Piano)
03. Mirian Conti - El porteñito (Arr. for Piano)
04. Mirian Conti - El choclo (Arr. for Piano)
05. Mirian Conti - Papas calientes (Arr. for Piano)
06. Mirian Conti - La cumparsita (Arr. for Piano)
07. Mirian Conti - Flores negras (Arr. for Piano)
08. Mirian Conti - El torito (Arr. for Piano)
09. Mirian Conti - Nunca tuvo novio (Arr. for Piano)
10. Mirian Conti - La casita de mis viejos (Arr. for Piano)
11. Mirian Conti - Silueta porteña (Arr. for Piano)
12. Mirian Conti - Arrabal (Arr. for Piano)
13. Mirian Conti - Tinta roja (Arr. for Piano)
14. Mirian Conti - Milonga de mis amores (Arr. for Piano)
15. Mirian Conti - Mi regalo (Arr. for Piano)
16. Mirian Conti - Percal (Arr. for Piano)
17. Mirian Conti - Corralera (Arr. for Piano)
18. Mirian Conti - El andariego (Arr. for Piano)
19. Mirian Conti - Naturaleza muerta (Arr. for Piano)
20. Mirian Conti - Tema otoñal (Arr. for Piano)
21. Mirian Conti - Melancólico (Arr. for Piano)
22. Mirian Conti - Sideral (Arr. for Piano)
23. Mirian Conti - Nostálgico (Arr. for Piano)
24. Mirian Conti - A los artistas plásticos (Arr. for Piano)
25. Mirian Conti - El firulete (Arr. for Piano)

foobar2000 1.6.2 / Dynamic Range Meter 1.1.1
log date: 2021-01-14 10:07:21

––––––––––––––––––––––––––––––––––––––––
Analyzed: Mirian Conti / Tangorama: An Anthology of 20th Century Tango, Vol. 1
––––––––––––––––––––––––––––––––––––––––

DR Peak RMS Duration Track
––––––––––––––––––––––––––––––––––––––––
DR12 -0.93 dB -18.06 dB 2:18 01-Re fa si (Arr. for Piano)
DR14 -2.74 dB -20.91 dB 2:44 02-Armenonville (Arr. for Piano)
DR12 -4.03 dB -18.63 dB 1:23 03-El porteñito (Arr. for Piano)
DR12 -3.00 dB -18.66 dB 1:48 04-El choclo (Arr. for Piano)
DR12 -1.34 dB -17.83 dB 1:53 05-Papas calientes (Arr. for Piano)
DR11 -3.02 dB -18.29 dB 2:19 06-La cumparsita (Arr. for Piano)
DR11 -6.74 dB -22.04 dB 2:34 07-Flores negras (Arr. for Piano)
DR12 -4.69 dB -19.64 dB 1:27 08-El torito (Arr. for Piano)
DR11 -7.37 dB -22.21 dB 1:55 09-Nunca tuvo novio (Arr. for Piano)
DR12 -3.17 dB -20.08 dB 3:09 10-La casita de mis viejos (Arr. for Piano)
DR11 -2.78 dB -18.22 dB 1:48 11-Silueta porteña (Arr. for Piano)
DR13 -2.76 dB -19.88 dB 3:38 12-Arrabal (Arr. for Piano)
DR12 -1.47 dB -16.89 dB 1:52 13-Tinta roja (Arr. for Piano)
DR12 -0.40 dB -17.46 dB 1:47 14-Milonga de mis amores (Arr. for Piano)
DR12 -2.94 dB -19.48 dB 1:41 15-Mi regalo (Arr. for Piano)
DR12 -4.95 dB -23.31 dB 2:21 16-Percal (Arr. for Piano)
DR12 -0.87 dB -18.44 dB 1:58 17-Corralera (Arr. for Piano)
DR12 -2.35 dB -18.13 dB 2:36 18-El andariego (Arr. for Piano)
DR12 -7.34 dB -24.31 dB 3:18 19-Naturaleza muerta (Arr. for Piano)
DR12 -1.89 dB -18.89 dB 2:53 20-Tema otoñal (Arr. for Piano)
DR13 -1.18 dB -17.74 dB 2:48 21-Melancólico (Arr. for Piano)
DR13 -3.25 dB -20.33 dB 3:02 22-Sideral (Arr. for Piano)
DR12 -3.98 dB -19.65 dB 2:35 23-Nostálgico (Arr. for Piano)
DR13 -2.97 dB -19.32 dB 3:45 24-A los artistas plásticos (Arr. for Piano)
DR12 -2.03 dB -18.40 dB 2:43 25-El firulete (Arr. for Piano)
––––––––––––––––––––––––––––––––––––––––

Number of tracks: 25
Official DR value: DR12

Samplerate: 96000 Hz
Channels: 2
Bits per sample: 24
Bitrate: 2271 kbps
Codec: FLAC
================================================================================



Thanks to the Original customer.