Mojo Buford - Mojo Workin' (2020) [Official Digital Download 24/96]

Posted By: pyatak
Mojo Buford - Mojo Workin' (2020) [Official Digital Download 24/96]

Mojo Buford - Mojo Workin' (2020) [Official Digital Download 24/96]
FLAC (tracks) 24-bit/44.1-96 kHz | Front Cover | Time - 32:40 minutes | 665 MB
Blues | Label: Sundazed Music - Modern Harmonic, Official Digital Download

Bluesman George “Mojo” Buford started blowing the harmonica in his teens, eventually linking up to tour with fellow Mississippian Muddy Waters. Adopting his nickname from ravenous crowds requesting Muddy’s “Got My Mojo Working,” Buford gained the attention of some gifted young rockers (including lead guitarist of The Trashmen!), who steered him into the studio for three smokin’ ‘69 sessions — the results of which we’re finally hearing for the first time! The songs here mostly came out of Buford’s live repertoire at the time, including (of course) “Got My Mojo Working” as well as “Love Without Jealousy,” a song Buford co-wrote that would appear on Waters’ 1973 album Mud In Your Ear. Several others in the sessions were Buford originals: the 12-bar nugget “Deep Sea Diver” and the funkier workouts “Lost Love” and “Stingin’ Bee Blues.” He also covered his pal Otis Spann’s “Blues Is a Botheration” and Sonny Boy Williamson II’s “Help Me,” co-written by Willie Dixon.

TRACKLIST

1. Mojo Buford - Help Me
2. Mojo Buford - Blues Is a Botheration
3. Mojo Buford - Lost Love
4. Mojo Buford - Deep Sea Diver
5. Mojo Buford - Love Without Jealousy
6. Mojo Buford - Rag Picker's Blues
7. Mojo Buford - Got My Mojo Working
8. Mojo Buford - Stingin' Bee Blues

foobar2000 1.3.16 / Dynamic Range Meter 1.1.1
log date: 2020-08-01 18:34:59

––––––––––––––––––––––––––––––––––––––––
Analyzed: Mojo Buford / Mojo Workin'
––––––––––––––––––––––––––––––––––––––––

DR Peak RMS Duration Track
––––––––––––––––––––––––––––––––––––––––
DR10 0.00 dB -11.67 dB 4:55 02-Blues Is a Botheration
DR10 0.00 dB -11.42 dB 3:59 03-Lost Love
DR10 0.00 dB -12.86 dB 5:23 04-Deep Sea Diver
DR10 -0.11 dB -12.08 dB 2:51 05-Love Without Jealousy
DR10 0.00 dB -12.26 dB 4:20 06-Rag Picker's Blues
DR11 0.00 dB -12.15 dB 4:14 07-Got My Mojo Working
DR10 0.00 dB -11.67 dB 2:19 08-Stingin' Bee Blues
––––––––––––––––––––––––––––––––––––––––

Number of tracks: 7
Official DR value: DR10

Samplerate: 96000 Hz
Channels: 2
Bits per sample: 24
Bitrate: 3006 kbps
Codec: FLAC
================================================================================

foobar2000 1.3.16 / Dynamic Range Meter 1.1.1
log date: 2020-08-01 18:34:49

––––––––––––––––––––––––––––––––––––––––
Statistics for: 01-Help Me
Number of samples: 12387396
Duration: 4:41
––––––––––––––––––––––––––––––––––––––––

Left Right

Peak Value: -0.14 dB –- 0.00 dB
Avg RMS: -13.11 dB –- -11.91 dB
DR channel: 11.28 dB –- 10.03 dB
––––––––––––––––––––––––––––––––––––––––

Official DR Value: DR11

Samplerate: 44100 Hz
Channels: 2
Bits per sample: 24
Bitrate: 1559 kbps
Codec: FLAC
================================================================================


Thanks to the Original customer.