Motörhead - Louder Than Noise… Live in Berlin (2021) [Official Digital Download]

Posted By: pyatak
Motörhead - Louder Than Noise… Live in Berlin (2021) [Official Digital Download]

Motörhead - Louder Than Noise… Live in Berlin (2021) [Official Digital Download]
FLAC (tracks) 24-bit/48 kHz | Front Cover | Time - 69:13 minutes |865 MB
Hard Rock | Label: Motorhead Music, Official Digital Download

MOTÖRHEAD TO RELEASE “LOUDER THAN NOISE… LIVE IN BERLIN” VIA SILVER LINING MUSIC ON APRIL 23RD 2021 The Lemmy Kilmister/Phil Campbell/Mikkey Dee Motörhead line-up spent decades cracking sound barriers, bending ears and decimating lawns worldwide, consistently delivering the Motörgospel to hundreds of thousands of fans. Louder Than Noise… Live in Berlin is a thunderous performance from the band’s 2012 Kings of The Road tour, spanning fifteen classics across all four decades. This line-up was Motörhead’s longest serving by a considerable distance, and throughout Louder Than Noise… Live in Berlin their powerful synergy boots its way through the speakers with the raucous charm and dirty, dangerous, sweaty gusto that was the Kilmister/Campbell/Dee trademark. From the unapologetically furious ‘I Know How to Die’ to a deliciously rare and raucous ‘Over the Top’, Louder Than Noise… Live in Berlin is all about the thick, raw and liberating power of Motörhead live. Further highlights include a favourably feral ‘Rock It’, a rudely raunchy ‘You Better Run’ and a classic one-two haymaker of ‘Ace of Spades’ and ‘Overkill’. Whether a collector completist or newbie to Motörhead’s music, Louder Than Noise… Live in Berlin is a welcome reminder of what real rock ‘n’ roll is truly about.

TRACKLIST

1. Motörhead - I Know How to Die (Live in Berlin 2012)
2. Motörhead - Damage Case (Live in Berlin 2012)
3. Motörhead - Stay Clean (Live in Berlin 2012)
4. Motörhead - Metropolis (Live in Berlin 2012)
5. Motörhead - Over the Top (Live in Berlin 2012)
6. Motörhead - Doctor Rock (Live in Berlin 2012)
7. Motörhead - String Theory (Live in Berlin 2012)
8. Motörhead - The Chase Is Better Than the Catch (Live in Berlin 2012)
9. Motörhead - Rock It (Live in Berlin 2012)
10. Motörhead - You Better Run (Live in Berlin 2012)
11. Motörhead - The One to Sing the Blues (Live in Berlin 2012)
12. Motörhead - Going to Brazil (Live in Berlin 2012)
13. Motörhead - Killed by Death (Live in Berlin 2012)
14. Motörhead - Ace of Spades (Live in Berlin 2012)
15. Motörhead - Overkill (feat. Anthrax) [Live in Berlin 2012]

foobar2000 1.6.1 / Dynamic Range Meter 1.1.1
log date: 2021-04-22 18:06:07

––––––––––––––––––––––––––––––––––––––––
Analyzed: Motörhead / Louder Than Noise… Live in Berlin
––––––––––––––––––––––––––––––––––––––––

DR Peak RMS Duration Track
––––––––––––––––––––––––––––––––––––––––
DR7 0.00 dB -7.80 dB 3:52 01-I Know How to Die (Live in Berlin 2012)
DR7 0.00 dB -7.30 dB 3:32 02-Damage Case (Live in Berlin 2012)
DR7 0.00 dB -7.61 dB 3:37 03-Stay Clean (Live in Berlin 2012)
DR7 0.00 dB -8.56 dB 4:45 04-Metropolis (Live in Berlin 2012)
DR7 0.00 dB -8.16 dB 2:46 05-Over the Top (Live in Berlin 2012)
DR7 0.00 dB -7.62 dB 3:47 06-Doctor Rock (Live in Berlin 2012)
DR8 -0.11 dB -10.05 dB 2:01 07-String Theory (Live in Berlin 2012)
DR7 0.00 dB -8.25 dB 5:37 08-The Chase Is Better Than the Catch (Live in Berlin 2012)
DR7 0.00 dB -8.08 dB 3:00 09-Rock It (Live in Berlin 2012)
DR7 0.00 dB -8.21 dB 5:40 10-You Better Run (Live in Berlin 2012)
DR7 0.00 dB -8.96 dB 8:17 11-The One to Sing the Blues (Live in Berlin 2012)
DR7 0.00 dB -7.78 dB 2:16 12-Going to Brazil (Live in Berlin 2012)
DR7 0.00 dB -8.17 dB 5:38 13-Killed by Death (Live in Berlin 2012)
––––––––––––––––––––––––––––––––––––––––

Number of tracks: 13
Official DR value: DR7

Samplerate: 48000 Hz
Channels: 2
Bits per sample: 24
Bitrate: 1879 kbps
Codec: FLAC
================================================================================



Thanks to the Original customer.