Luigi Piovano & Archi di Santa Cecilia - Mozart: Divertimenti & Eine kleine Nachtmusik (2020) [Official Digital Download 24/88]

Posted By: SERTiL
Luigi Piovano & Archi di Santa Cecilia - Mozart: Divertimenti & Eine kleine Nachtmusik (2020) [Official Digital Download 24/88]

Luigi Piovano & Archi di Santa Cecilia - Mozart: Divertimenti & Eine kleine Nachtmusik (2020)
FLAC (tracks) 24-bit/96 kHz | Time - 60:50 minutes | 0.99 GB
Studio Master, Official Digital Download | Artwork: Digital Booklet

The Arcana label continues its fruitful collaboration with the Archi di Santa Cecilia, the Rome-based ensemble formed from members of the famous Orchestra of the Accademia Nazionale di Santa Cecilia. The ensemble is conducted by Luigi Piovano, the orchestra’s principal cellist and since 2007 a regular partner in a cello-piano duo with Sir Antonio Pappano, its chief conductor (their recording of the Brahms cello sonatas will be released later this year). The Archi di Santa Cecilia now offer us a brand new recording devoted to Mozart: the famous Serenade Eine kleine Nachtmusik K525 and the less familiar but equally brilliant Divertimenti K136, K137 and K138.

The combination of such luminous music and the virtuoso skill of the players is bound to elicit enormous enthusiasm. Their previous recording of the Tchaikovsky and Dvořák Serenades met with outstanding acclaim, leading Janos Gardonyi in the Canadian magazine The Whole Note to describe the relationship between Piovano and his group in the following terms: ‘I imagine the orchestra moves with him and his every gesture. A tremendous rapport, like hypnosis, that only a Gergiev, Ozawa, Solti or the great Karajan could muster.’

Tracklist:
01. Divertimento in D Major K.136: I. Allegro
02. Divertimento in D Major K .136: II. Andante
03. Divertimento in D Major K .136: II. Presto
04. Divertimento in B-Flat Major K.137: I.Andante
05. Divertimento in B-Flat Major K.137: II. Allegro di molto
06. Divertimento in B-Flat Major K.137: III .Allegro assai
07. Divertimento in F Major K.138: I . Allegro
08. Divertimento in F Major K.138: II. Andante
09. Divertimento in F Major K.138: III. Presto
10. Serenade in G Major Eine kleine Nachtmusik K.525: I. Allegro
11. Serenade in G Major Eine kleine Nachtmusik K.525: II. Romance (Andante)
12. Serenade in G Major Eine kleine Nachtmusik K.525: III. Menuetto (Allegretto)
13. Serenade in G Major Eine kleine Nachtmusik K.525: IV. Rondo (Allegro)

foobar2000 1.3.7 / Dynamic Range Meter 1.1.1
log date: 2020-01-09 23:24:08

––––––––––––––––––––––––––––––––––––––––
Analyzed: Luigi Piovano & Archi di Santa Cecilia / Mozart: Divertimenti & Eine kleine Nachtmusik
––––––––––––––––––––––––––––––––––––––––

DR Peak RMS Duration Track
––––––––––––––––––––––––––––––––––––––––
DR14 -5.51 dB -22.92 dB 5:45 01-Divertimento in D Major K.136 : I. Allegro
DR14 -6.43 dB -24.57 dB 7:55 02-Divertimento in D Major K .136: II. Andante
DR16 -2.52 dB -22.57 dB 3:32 03-Divertimento in D Major K .136: II. Presto
DR16 -5.33 dB -25.59 dB 7:24 04-Divertimento in B-Flat Major K.137: I.Andante
DR16 -1.14 dB -21.84 dB 3:12 05-Divertimento in B-Flat Major K.137: II. Allegro di molto
DR14 -2.65 dB -22.37 dB 3:02 06-Divertimento in B-Flat Major K.137:: III .Allegro assai
DR15 -3.83 dB -22.09 dB 4:59 07-Divertimento in F Major K.138: I . Allegro
DR13 -5.58 dB -23.48 dB 5:42 08-Divertimento in F Major K.138: II. Andante
DR13 -5.93 dB -23.20 dB 1:54 09-Divertimento in F Major K.138: III. Presto
DR16 -2.48 dB -23.97 dB 5:22 10-Serenade in G Major "Eine kleine Nachtmusik" K.525: I. Allegro
DR14 -4.57 dB -26.98 dB 5:27 11-Serenade in G Major "Eine kleine Nachtmusik" K.525: II. Romance (Andante)
DR13 -5.16 dB -25.49 dB 1:47 12-Serenade in G Major "Eine kleine Nachtmusik" K.525: III. Menuetto (Allegretto)
DR14 -4.84 dB -24.71 dB 4:53 13-Serenade in G Major "Eine kleine Nachtmusik" K.525: IV. Rondo (Allegro)
––––––––––––––––––––––––––––––––––––––––

Number of tracks: 13
Official DR value: DR14

Samplerate: 88200 Hz
Channels: 2
Bits per sample: 24
Bitrate: 2333 kbps
Codec: FLAC
================================================================================


Thanks to the Original customer.