NDR Radiophilharmonie & Andrew Manze - Mozart: Symphonies Nos. 40 & 41 (Live) (2019) [Official Digital Download]

Posted By: SERTiL
NDR Radiophilharmonie & Andrew Manze - Mozart: Symphonies Nos. 40 & 41 (Live) (2019) [Official Digital Download]

NDR Radiophilharmonie & Andrew Manze - Mozart: Symphonies Nos. 40 & 41 (Live) (2019)
FLAC (tracks) 24-bit/48 kHz | Time - 74:43 minutes | 745 MB
Studio Master, Official Digital Download | Artwork: Digital Booklet

Considered to be the highest triumph of instrumental composition in his own day, Mozart’s final symphonies continue to sweep audiences away. From the famous G-minor opening movement of the 40th symphony that cuts straight to the chase to the unprecedented complexity of the 41st symphony’s majestic finale, Mozart displays his vivid melodic invention as well as the maturity of his “old” musical soul. Even if his untimely death came unexpectedly, these two symphonies fill the listener with a sense of culmination, and may be seen as a sublime conclusion of both Mozart’s musical development and of the eighteenth-century symphony in general.

These extraordinary works are performed here by the NDR Radiophilharmonie and Andrew Manze, and will be followed by a recording of Mozart’s 38th and 39th symphonies. With their first Mozart album, conductor and orchestra extend their successful PENTATONE discography that already contains the complete symphonies of Mendelssohn, crowned with a 2017 Jahrespreis der deutschen Schallplattenkritik.

Tracklist:
1. Symphony No. 40 in G Minor, K. 550: I. Molto allegro (Live) 07:32
2. Symphony No. 40 in G Minor, K. 550: II. Andante (Live) 13:16
3. Symphony No. 40 in G Minor, K. 550: III. Menuetto. Allegretto (Live) 04:20
4. Symphony No. 40 in G Minor, K. 550: IV. Allegro assai (Live) 09:30
5. Symphony No. 41 in C Major, K. 551 "Jupiter": I. Allegro vivace (Live) 11:26
6. Symphony No. 41 in C Major, K. 551 "Jupiter": II. Andante cantabile (Live) 11:00
7. Symphony No. 41 in C Major, K. 551 "Jupiter": III. Menuetto. Allegretto (Live) 06:04
8. Symphony No. 41 in C Major, K. 551 "Jupiter": IV. Molto allegro (Live) 11:33

Personnel:
NDR Radiophilharmonie
Andrew Manze, conductor

foobar2000 1.3.7 / Dynamic Range Meter 1.1.1
log date: 2019-02-11 18:03:44

––––––––––––––––––––––––––––––––––––––––
Analyzed: NDR Radiophilharmonie / Mozart: Symphonies Nos. 40 & 41 (Live)
––––––––––––––––––––––––––––––––––––––––

DR Peak RMS Duration Track
––––––––––––––––––––––––––––––––––––––––
DR13 -3.13 dB -20.96 dB 7:35 01-Symphony No. 40 in G Minor, K. 550 - I. Molto allegro (Live)
DR13 -3.38 dB -24.58 dB 13:17 02-Symphony No. 40 in G Minor, K. 550 - II. Andante (Live)
DR13 -5.17 dB -22.68 dB 4:21 03-Symphony No. 40 in G Minor, K. 550 - III. Menuetto. Allegretto (Live)
DR13 -1.99 dB -21.42 dB 9:31 04-Symphony No. 40 in G Minor, K. 550 - IV. Allegro assai (Live)
DR13 -0.39 dB -18.79 dB 11:27 05-Symphony No. 41 in C Major, K. 551 'Jupiter' - I. Allegro vivace (Live)
DR14 -5.11 dB -24.65 dB 11:00 06-Symphony No. 41 in C Major, K. 551 'Jupiter' - II. Andante cantabile (Live)
DR13 -1.77 dB -20.02 dB 6:04 07-Symphony No. 41 in C Major, K. 551 'Jupiter' - III. Menuetto. Allegretto (Live)
DR13 -0.53 dB -17.49 dB 11:33 08-Symphony No. 41 in C Major, K. 551 'Jupiter' - IV. Molto allegro (Live)
––––––––––––––––––––––––––––––––––––––––

Number of tracks: 8
Official DR value: DR13

Samplerate: 48000 Hz
Channels: 2
Bits per sample: 24
Bitrate: 1505 kbps
Codec: FLAC
================================================================================


Thanks to the Original customer.