Tags
Language
Tags

Hélène Devilleneuve & Rikako Murata - Musique Française pour hautbois (2017) [Official Digital Download 24/88]

Posted By: SERTiL
Hélène Devilleneuve & Rikako Murata - Musique Française pour hautbois (2017) [Official Digital Download 24/88]

Karine Deshayes, Les Forces Majeures & Raphaël Merlin - Rossini (2016)
FLAC (tracks) 24-bit/88.2 kHz | Time - 60:18 minutes | 1.01 GB
Studio Master, Official Digital Download | Artwork: Digital booklet

If this album of iconic pieces for oboe has been a long-standing project for Hélène Devilleneuve - super soliste de l'Orchestre Philharmonique de Radio France - it is because of the particularly strong ties that she has with each one of them. From Bozza and his shimmering harmonies to the more obscure composer Destenay, of which this is the first French recording, each of these works show the warmth and light in the sound of the oboe.

TRACKLIST

Eugène Bozza (1905-1991)

Fantaisie pastorale, Op. 37
1 Fantaisie pastorale, Op. 37: I. Lent 02:42
2 Fantaisie pastorale, Op. 37: II. Moderato 01:59
3 Fantaisie pastorale, Op. 37: III. Allegro ma non troppo 01:30

Pierre Sancan (1916-2008): Sonatine pour hautbois et piano
4 Sonatine pour hautbois et piano: I. Modéré 03:04
5 Sonatine pour hautbois et piano: II. Andante 03:09
6 Sonatine pour hautbois et piano: III. Presto 01:44

Francis Poulenc (1899-1963)

Sonate pour hautbois et piano, FP 185
7 Sonate pour hautbois et piano, FP 185: I. Élégie 05:06
8 Sonate pour hautbois et piano, FP 185: II. Scherzo 04:09
9 Sonate pour hautbois et piano, FP 185: III. Déploration 04:38

Henri Dutilleux (1916-2013)

Sonate pour hautbois et piano
10 Sonate pour hautbois et piano: I. Aria. Grave 02:58
11 Sonate pour hautbois et piano: II. Scherzo. Vif 03:52
12 Sonate pour hautbois et piano: III. Finale. Assez allant 04:11

Édouard Destenay (1850-1924)

Trio en Si Mineur pour hautbois, clarinette et piano, Op. 27
13 Trio en Si Mineur pour hautbois, clarinette et piano, Op. 27: I. Allegro vivace 07:55
14 Trio en Si Mineur pour hautbois, clarinette et piano, Op. 27: II. Andante non troppo 06:14
15 Trio en Si Mineur pour hautbois, clarinette et piano, Op. 27: III. Presto 07:07

PERSONNEL
Hélène Devilleneuve, oboe
Rikako Murata, piano
Nicolas Baldeyrou, clarinet

foobar2000 1.3.7 / Dynamic Range Meter 1.1.1
log date: 2017-08-20 18:47:48

––––––––––––––––––––––––––––––––––––––––
Analyzed: Hélène Devilleneuve, Rikako Murata / Musique Française pour hautbois
––––––––––––––––––––––––––––––––––––––––

DR Peak RMS Duration Track
––––––––––––––––––––––––––––––––––––––––
DR14 -1.88 dB -22.15 dB 2:42 01-Fantaisie pastorale, Op. 37: I. Lent
DR11 -2.59 dB -21.14 dB 2:00 02-Fantaisie pastorale, Op. 37: II. Moderato
DR14 -0.50 dB -20.39 dB 1:30 03-Fantaisie pastorale, Op. 37: III. Allegro ma non troppo
DR14 -3.42 dB -21.37 dB 3:05 04-Sonatine pour hautbois et piano: I. Modéré
DR13 -2.76 dB -21.98 dB 3:09 05-Sonatine pour hautbois et piano: II. Andante
DR13 -0.32 dB -19.19 dB 1:45 06-Sonatine pour hautbois et piano: III. Presto
DR15 -2.15 dB -23.03 dB 5:06 07-Sonate pour hautbois et piano, FP 185: I. Élégie
DR14 -3.28 dB -21.53 dB 4:09 08-Sonate pour hautbois et piano, FP 185: II. Scherzo
DR14 -2.87 dB -22.92 dB 4:39 09-Sonate pour hautbois et piano, FP 185: III. Déploration
DR15 -2.04 dB -25.05 dB 2:59 10-Sonate pour hautbois et piano: I. Aria. Grave
DR16 -0.32 dB -21.85 dB 3:53 11-Sonate pour hautbois et piano: II. Scherzo. Vif
DR13 -2.28 dB -20.87 dB 4:11 12-Sonate pour hautbois et piano: III. Finale. Assez allant
DR13 -3.42 dB -19.64 dB 7:56 13-Trio en Si Mineur pour hautbois, clarinette et piano, Op. 27: I. Allegro vivace
DR13 -4.30 dB -22.42 dB 6:15 14-Trio en Si Mineur pour hautbois, clarinette et piano, Op. 27: II. Andante non troppo
DR13 -3.60 dB -20.92 dB 7:07 15-Trio en Si Mineur pour hautbois, clarinette et piano, Op. 27: III. Presto
––––––––––––––––––––––––––––––––––––––––

Number of tracks: 15
Official DR value: DR14

Samplerate: 88200 Hz
Channels: 2
Bits per sample: 24
Bitrate: 2394 kbps
Codec: FLAC
================================================================================


Thanks to the Original customer.