Mulo Francel, Chris Gall - Mythos (2019) [Official Digital Download 24/96]

Posted By: SERTiL
Mulo Francel, Chris Gall - Mythos (2019) [Official Digital Download 24/96]

Mulo Francel, Chris Gall - Mythos (2019)
FLAC (tracks) 24-bit/96 kHz | Time - 67:26 minutes | 1.10 GB
Studio Master, Official Digital Download | Artwork: Front Cover

Like no other German pianist, Chris Gall has consistently and creatively expanded the stylistic boundaries of jazz in the last few years, inspiring audiences from the legendary Montreux Jazz Festival to the JazzBaltica.

Mulo Francel is a saxophonist and globetrotter. Also known as the creative whirlwind of the ensemble Quadro Nuevo. For many years, the multiple ECHO award winner has been touring the countries of the world. From Bavaria to the Balkans to Bolivia. Together, Chris and Mulo turned the night into day in Buenos Aires. The result was the album Quadro Nuevo: Tango, which was awarded the German Jazz Award in Platinum.

The duo now presents a fascinating cosmos of virtuoso improvisations, mesmerizing minimal music elements, subtle grooves, new interpretations of classical works, magical impressionistic sound images and atmospheric ballads.

Their music feeds on encounters with people, their cultures, their myths. It addresses the ancient dream of mankind symbolized in Icarus’ outbreak from one’s own destiny, as well as the adventures of Aeneas in search of a new home. It devotes itself with “The 7 Wise Men” to a political idea and, with “Jesu bleibet meine Freude” to the most formative myth of the Occident.

Tracklist:
1. Yorke's Guitar (5:08)
2. Palinuro (7:22)
3. Die 7 Weisen (10:34)
4. Reality Check (3:52)
5. Jesu bleibet meine Freude (4:33)
6. East of the Sun (5:35)
7. Ikarus' Dream (5:45)
8. Dido's Lament (5:49)
9. Wave (5:52)
10. Sketches of Styx (6:23)
11. Old Folks (6:40)

foobar2000 1.3.7 / Dynamic Range Meter 1.1.1
log date: 2019-11-08 15:31:28

––––––––––––––––––––––––––––––––––––––––
Analyzed: Mulo Francel, Chris Gall / Mythos
––––––––––––––––––––––––––––––––––––––––

DR Peak RMS Duration Track
––––––––––––––––––––––––––––––––––––––––
DR9 -1.00 dB -13.49 dB 5:08 01-Yorke's Guitar
DR9 -1.00 dB -12.61 dB 7:22 02-Palinuro
DR10 -1.00 dB -15.29 dB 10:34 03-Die 7 Weisen
DR10 -1.00 dB -12.85 dB 3:52 04-Reality Check
DR11 -1.00 dB -15.10 dB 4:33 05-Jesu bleibet meine Freude
DR11 -1.00 dB -14.29 dB 5:35 06-East of the Sun
DR11 -1.00 dB -15.68 dB 5:45 07-Ikarus' Dream
DR10 -1.00 dB -14.21 dB 5:49 08-Dido's Lament
DR12 -1.00 dB -14.90 dB 5:52 09-Wave
DR12 -1.00 dB -15.86 dB 6:23 10-Sketches of Styx
DR10 -1.00 dB -15.23 dB 6:40 11-Old Folks
––––––––––––––––––––––––––––––––––––––––

Number of tracks: 11
Official DR value: DR10

Samplerate: 96000 Hz
Channels: 2
Bits per sample: 24
Bitrate: 2278 kbps
Codec: FLAC
================================================================================


Thanks to the Original customer.