Tags
Language
Tags

Nadja Zwiener - Senza basso: Auf dem Weg zu Bach (2021) [Official Digital Download 24/96]

Posted By: SERTiL
Nadja Zwiener - Senza basso: Auf dem Weg zu Bach (2021) [Official Digital Download 24/96]

Nadja Zwiener - Senza basso: Auf dem Weg zu Bach (2021)
FLAC (tracks) 24-bit/96 kHz | Time - 65:44 minutes | 1.45 GB
Studio Master, Official Digital Download | Artwork: Digital booklet

Johann Sebastian Bach is commonly understood as the starting point of the violin repertoire. But there was unaccompanied violin music before him, too — and it is truly exciting! The renowned baroque violinist Nadja Zwiener presents this music with her solo debut album on GENUIN. Her inspired recording shows that Bach was able to build his repertoire on a great foundation: Composers such as Johann Georg Pisendel, Johann Westhoff, and even Arcangelo Corelli and Giuseppe Tartini wrote highly challenging works for the incredibly versatile instrument. The concertmistress of the English Concert and the Gaechinger Cantorey takes us on a fascinating journey.

Tracklist:
01. Baltzar: Prelude in C Minor (1:31)
02. Matteis: Ayres for the Violin, Book 2: Passaggio rotto - Andamento veloce - Fantasia (4:23)
03. Westhoff: Violin Suite No. 1 in A Minor: I. Allemande (3:01)
04. Westhoff: Violin Suite No. 1 in A Minor: II. Courante (1:46)
05. Westhoff: Violin Suite No. 1 in A Minor: III. Sarabande (2:19)
06. Westhoff: Violin Suite No. 1 in A Minor: IV. Gigue (2:38)
07. Corelli: Prelude in A Major (1:13)
08. Torelli: Prelude in E Minor (2:47)
09. Pisendel: Violin Sonata in A Minor, JunP IV.2: I. — (2:13)
10. Pisendel: Violin Sonata in A Minor, JunP IV.2: II. Allegro (5:17)
11. Pisendel: Violin Sonata in A Minor, JunP IV.2: III. Giga (8:56)
12. Corelli: Prelude in D Major (0:54)
13. Fantezia in D Major (1:23)
14. Vilsmayr: Violin Partita No. 1 in A Major: I. Prelude (1:44)
15. Vilsmayr: Violin Partita No. 1 in A Major: II. Aria (1:12)
16. Vilsmayr: Violin Partita No. 1 in A Major: III. Sarabande (1:43)
17. Vilsmayr: Violin Partita No. 1 in A Major: IV. Gavott (1:08)
18. Vilsmayr: Violin Partita No. 1 in A Major: V. Menuett (1:07)
19. Vilsmayr: Violin Partita No. 1 in A Major: VI. Aria (1:34)
20. Vilsmayr: Violin Partita No. 1 in A Major: VII. Menuett (1:11)
21. Vilsmayr: Violin Partita No. 1 in A Major: VIII. Aria (1:13)
22. Vilsmayr: Violin Partita No. 1 in A Major: IX. Menuett (0:48)
23. Vilsmayr: Violin Partita No. 1 in A Major: X. Gigue. Presto (0:58)
24. Preludio et fantezia in F Major (3:15)
25. Baltzar: Allemande in B-Flat Major (1:50)
26. Purcell: Prelude in G Minor, ZN 773 (0:59)
27. Biber: Passacaglia in G Minor, C. 105 "The Guardian Angel" (8:53)

foobar2000 1.6 / Dynamic Range Meter 1.1.1
log date: 2021-03-30 15:05:52

––––––––––––––––––––––––––––––––––––––––
Analyzed: Nadja Zwiener / Senza basso: Auf dem Weg zu Bach
––––––––––––––––––––––––––––––––––––––––

DR Peak RMS Duration Track
––––––––––––––––––––––––––––––––––––––––
DR12 -2.27 dB -18.31 dB 1:31 01-Baltzar: Prelude in C Minor
DR14 -0.30 dB -18.32 dB 4:23 02-Matteis: Ayres for the Violin, Book 2: Passaggio rotto - Andamento veloce - Fantasia
DR13 -0.32 dB -17.41 dB 3:01 03-Westhoff: Violin Suite No. 1 in A Minor: I. Allemande
DR12 -1.93 dB -17.11 dB 1:46 04-Westhoff: Violin Suite No. 1 in A Minor: II. Courante
DR13 -4.25 dB -21.01 dB 2:19 05-Westhoff: Violin Suite No. 1 in A Minor: III. Sarabande
DR13 -0.30 dB -18.44 dB 2:38 06-Westhoff: Violin Suite No. 1 in A Minor: IV. Gigue
DR12 -0.30 dB -17.83 dB 1:13 07-Corelli: Prelude in A Major
DR13 -2.12 dB -19.97 dB 2:47 08-Torelli: Prelude in E Minor
DR14 -0.30 dB -19.38 dB 2:13 09-Pisendel: Violin Sonata in A Minor, JunP IV.2: I. —
DR13 -2.44 dB -19.09 dB 5:17 10-Pisendel: Violin Sonata in A Minor, JunP IV.2: II. Allegro
DR14 -0.30 dB -17.36 dB 8:56 11-Pisendel: Violin Sonata in A Minor, JunP IV.2: III. Giga
DR12 -2.30 dB -17.98 dB 0:54 12-Corelli: Prelude in D Major
DR12 -1.08 dB -16.75 dB 1:23 13-Fantezia in D Major
DR12 -2.49 dB -18.63 dB 1:44 14-Vilsmayr: Violin Partita No. 1 in A Major: I. Prelude
DR11 -1.08 dB -18.36 dB 1:12 15-Vilsmayr: Violin Partita No. 1 in A Major: II. Aria
DR13 -3.50 dB -19.62 dB 1:43 16-Vilsmayr: Violin Partita No. 1 in A Major: III. Sarabande
DR13 -0.30 dB -16.41 dB 1:08 17-Vilsmayr: Violin Partita No. 1 in A Major: IV. Gavott
DR12 -3.75 dB -18.56 dB 1:07 18-Vilsmayr: Violin Partita No. 1 in A Major: V. Menuett
DR13 -1.57 dB -19.70 dB 1:34 19-Vilsmayr: Violin Partita No. 1 in A Major: VI. Aria
DR13 -2.49 dB -20.64 dB 1:11 20-Vilsmayr: Violin Partita No. 1 in A Major: VII. Menuett
DR13 -0.30 dB -17.12 dB 1:13 21-Vilsmayr: Violin Partita No. 1 in A Major: VIII. Aria
DR14 -0.30 dB -18.66 dB 0:48 22-Vilsmayr: Violin Partita No. 1 in A Major: IX. Menuett
DR12 -2.18 dB -18.20 dB 0:58 23-Vilsmayr: Violin Partita No. 1 in A Major: X. Gigue. Presto
DR14 -0.30 dB -18.96 dB 3:15 24-Preludio et fantezia in F Major
DR13 -2.77 dB -19.08 dB 1:50 25-Baltzar: Allemande in B-Flat Major
DR11 -7.15 dB -21.76 dB 0:59 26-Purcell: Prelude in G Minor, ZN 773
DR13 -0.91 dB -18.03 dB 8:53 27-Biber: Passacaglia in G Minor, C. 105 "The Guardian Angel"
––––––––––––––––––––––––––––––––––––––––

Number of tracks: 27
Official DR value: DR13

Samplerate: 96000 Hz
Channels: 2
Bits per sample: 24
Bitrate: 3152 kbps
Codec: FLAC
================================================================================


Thanks to the Original customer.