Tags
Language
Tags
May 2024
Su Mo Tu We Th Fr Sa
28 29 30 1 2 3 4
5 6 7 8 9 10 11
12 13 14 15 16 17 18
19 20 21 22 23 24 25
26 27 28 29 30 31 1

Nancy Vieira - Gente (2024) [Official Digital Download 24/96]

Posted By: pyatak
Nancy Vieira - Gente (2024) [Official Digital Download 24/96]

Nancy Vieira - Gente (2024) [Official Digital Download 24/96]
FLAC (tracks) 24-bit/96 kHz | Front Cover | Time - 52:12 minutes | 1,05 GB
Latin Jazz, World | Studio Master, Official Digital Download

Nancy Vieira's clear and direct voice tells of the stories, dreams and longings, pains and joys of the people of Cape Verde. People all over the world fall into reverent silence when her voice captivates an entire country. Nancy Vieira's music is full of subtleties, rich in harmonic twists and represents a new generation of Cape Verdean artists. The special magic of "Gente" lies in the traditional sounds and their points of contact with the here and now. These points also lie in the narrow streets of Lisbon, the nature of Brazil and the percussion of African rhythms.

Nancy Vieira comes from the Cape Verdean island of Boa Vista, she grew up in the African Santiago and the nomadic São Vicente and started her musical career in Lisbon, the capital of fado and pop. "GENTE", Nancy Vieira's new album, is the follow-up to "Manhã Florida" from 2018 and demonstrates a remarkable artistic ambition. It is a work that has been slowly conceived, polished, planned and meticulously perfected. "Gente" is a work of encounters, of stories, of ideas, but above all of people.

The album was recorded in the historic Namouche Studio in Lisbon and in the studio of Peruvian musician Jorge Cervantes, who can also be heard on the album and contributed some of the arrangements. Musically, Nancy Vieiras travels to places that she already knows well from the stage. The sound of Lisbon, where the singer studied and lived for a long time, is particularly present. Some of her musicians come from there, such as percussionist Iuri Oliveira, one of the driving forces behind the album. She is joined by international musicians such as Mário Lúcio and Vaiss Dias from the Cape Verde Islands, Olmo Marin from the Basque Country, the two accordionists Luciano Maia and Gustavo Nunes from Brazil and the violinist Denys Stetsenko from the Ukraine.

TRACKLIST

1. Nancy Vieira - Sol Di Nha Vida
2. Nancy Vieira - Singa
3. Nancy Vieira - Nôve Kretxêu
4. Nancy Vieira - Amor
5. Nancy Vieira - Ta Cundum Cundum
6. Nancy Vieira - Sabu
7. Nancy Vieira - Fidju Grandi
8. Nancy Vieira - Princesa
9. Nancy Vieira - Praia Maria
10. Nancy Vieira - Fado Crioulo
11. Nancy Vieira - Dia Funçon
12. Nancy Vieira - Meditá
13. Nancy Vieira - Rosa Sábi
14. Nancy Vieira - Dona Morna

foobar2000 1.6.2 / Dynamic Range Meter 1.1.1
log date: 2024-03-15 10:08:22

––––––––––––––––––––––––––––––––––––––––
Analyzed: Nancy Vieira / Gente
––––––––––––––––––––––––––––––––––––––––

DR Peak RMS Duration Track
––––––––––––––––––––––––––––––––––––––––
DR9 0.00 dB -10.66 dB 3:16 01-Sol Di Nha Vida
DR9 -0.05 dB -10.69 dB 3:51 02-Singa
DR9 -0.10 dB -10.82 dB 4:12 03-Nôve Kretxêu
DR8 -0.10 dB -10.45 dB 4:21 04-Amor
DR9 -0.10 dB -10.12 dB 4:36 05-Ta Cundum Cundum
DR8 -0.10 dB -10.45 dB 3:39 06-Sabu
DR8 -0.10 dB -11.13 dB 2:48 07-Fidju Grandi
DR8 -0.06 dB -9.71 dB 3:52 08-Princesa
DR9 -0.15 dB -10.83 dB 4:36 09-Praia Maria
DR9 -0.10 dB -10.69 dB 4:35 10-Fado Crioulo
DR9 0.00 dB -10.56 dB 3:57 11-Dia Funçon
DR9 -0.10 dB -10.46 dB 4:18 12-Meditá
DR9 -0.10 dB -10.95 dB 2:26 13-Rosa Sábi
DR8 -0.10 dB -11.00 dB 4:43 14-Dona Morna
––––––––––––––––––––––––––––––––––––––––

Number of tracks: 14
Official DR value: DR9

Samplerate: 96000 Hz
Channels: 2
Bits per sample: 24
Bitrate: 2737 kbps
Codec: FLAC
================================================================================



Thanks to the Original customer.