Tags
Language
Tags

Nat King Cole - Jazz Encounters (2021) [Official Digital Download]

Posted By: pyatak
Nat King Cole - Jazz Encounters (2021) [Official Digital Download]

Nat King Cole - Jazz Encounters (2021) [Official Digital Download]
FLAC (tracks) 24-bit/96 kHz | Front Cover | Time - 51:25 minutes | 756 MB
Jazz | Label: RevOla, Official Digital Download

Nathaniel Adams Coles (March 17, 1919 – February 15, 1965), known professionally as Nat King Cole, was an American singer, jazz pianist, and actor. He recorded over 100 songs that became hits on the pop charts. His trio was the model for small jazz ensembles that followed. Cole also acted in films and on television and performed on Broadway. He was the first African-American man to host an American television series. He was the father of singer-songwriter Natalie Cole (1950–2015).

TRACKLIST

1. Nat King Cole - Leap Here (Remastered)
2. Nat King Cole - Metronome Riff (Remastered)
3. Nat King Cole - You Can Depend On Me (Remastered)
4. Nat King Cole - If I Could Be ith You (Remastered)
5. Nat King Cole - Stormy Weather (Remastered)
6. Nat King Cole - Riffamarole (Remastered)
7. Nat King Cole - Baby, Won't You Please Come Home (Remastered)
8. Nat King Cole - Cindy (Remastered)
9. Nat King Cole - Riding On The Gravy Train (Remastered)
10. Nat King Cole - I'll Be Home With You In Apple Blossom Time (Remastered)
11. Nat King Cole - For You My Love (Remastered)
12. Nat King Cole - Can I Come In For A Second? (Remastered)
13. Nat King Cole - My Baby Just Cares For Me (Remastered)
14. Nat King Cole - Mule Train (Remastered)
15. Nat King Cole - Save The Bones For Henry Jones (Remastered)
16. Nat King Cole - My Baby Likes To Be-Bop (Remastered)
17. Nat King Cole - Harmony (Remastered)
18. Nat King Cole - You Can't Make Money Dreamin' (Remastered)

foobar2000 1.6.2 / Dynamic Range Meter 1.1.1
log date: 2021-07-31 14:19:17

––––––––––––––––––––––––––––––––––––––––
Analyzed: Nat King Cole / Jazz Encounters
––––––––––––––––––––––––––––––––––––––––

DR Peak RMS Duration Track
––––––––––––––––––––––––––––––––––––––––
DR12 -0.96 dB -15.61 dB 3:25 01-Leap Here (Remastered)
DR13 -0.93 dB -18.32 dB 2:45 02-Metronome Riff (Remastered)
DR12 -1.34 dB -16.68 dB 3:00 03-You Can Depend On Me (Remastered)
DR13 -1.40 dB -16.62 dB 2:47 04-If I Could Be ith You (Remastered)
DR11 -1.45 dB -15.10 dB 3:15 05-Stormy Weather (Remastered)
DR12 -1.00 dB -15.74 dB 2:52 06-Riffamarole (Remastered)
DR12 -2.35 dB -16.42 dB 2:49 07-Baby, Won't You Please Come Home (Remastered)
DR10 -1.72 dB -14.82 dB 2:57 08-Cindy (Remastered)
DR11 -3.51 dB -16.31 dB 3:01 09-Riding On The Gravy Train (Remastered)
DR11 -0.97 dB -14.50 dB 3:06 10-I'll Be Home With You In Apple Blossom Time (Remastered)
DR15 -3.10 dB -20.34 dB 2:26 11-For You My Love (Remastered)
DR13 -1.14 dB -16.74 dB 2:51 12-Can I Come In For A Second? (Remastered)
DR13 -2.65 dB -18.12 dB 2:47 13-My Baby Just Cares For Me (Remastered)
DR13 -1.62 dB -18.60 dB 2:56 14-Mule Train (Remastered)
DR13 -1.00 dB -17.49 dB 2:41 15-Save The Bones For Henry Jones (Remastered)
DR14 -2.34 dB -19.92 dB 2:28 16-My Baby Likes To Be-Bop (Remastered)
DR14 -1.02 dB -17.94 dB 2:58 17-Harmony (Remastered)
DR14 -2.40 dB -19.28 dB 2:28 18-You Can't Make Money Dreamin' (Remastered)
––––––––––––––––––––––––––––––––––––––––

Number of tracks: 18
Official DR value: DR13

Samplerate: 96000 Hz
Channels: 2
Bits per sample: 24
Bitrate: 1025 kbps
Codec: FLAC
================================================================================



Thanks to the Original customer.