Tags
Language
Tags
February 2023
Su Mo Tu We Th Fr Sa
29 30 31 1 2 3 4
5 6 7 8 9 10 11
12 13 14 15 16 17 18
19 20 21 22 23 24 25
26 27 28 1 2 3 4

Nazrin Rashidova - Sauret: 24 Études-caprices, Vol. 3 (2019) [Official Digital Download 24/96]

Posted By: SERTiL
Nazrin Rashidova - Sauret: 24 Études-caprices, Vol. 3 (2019) [Official Digital Download 24/96]

Nazrin Rashidova - Sauret: 24 Études-caprices, Vol. 3 (2019)
FLAC (tracks) 24-bit/96 kHz | Time - 78:57 minutes | 1.40 GB
Studio Master, Official Digital Download | Artwork: Digital Booklet

With a portfolio of over 250 works, including major concertos and technical studies, Émile Sauret – hugely admired by Brahms, Liszt and Tchaikovsky – was one of the most distinguished figures of his time, a violinist with a stupendous technique and a profoundly analytical mind. With its spellbinding effects and exceptional variation of form and dynamics, Volume 3 of his Études-Caprices, Op. 64 continues the exploration of this monumental work’s fusion of virtuosity and expression (Volume 1 is on 8573704 and Volume 2 on 8573843). Nazrin Rashidova plays on Sauret’s own 1685 Stradivari violin.

Tracklist:
01. 24 Études-caprices, Op. 64: No. 14 in E-Flat Minor
02. 24 Études-caprices, Op. 64: No. 15 in B Major
03. 24 Études-caprices, Op. 64: No. 16 in G-Sharp Minor
04. 24 Études-caprices, Op. 64: No. 17 in E Major
05. 24 Études-caprices, Op. 64: No. 18 in C-Sharp Minor
06. 24 Études-caprices, Op. 64: No. 19 in A Major

Personnel:
Nazrin Rashidova, violin

foobar2000 1.3.7 / Dynamic Range Meter 1.1.1
log date: 2019-07-15 15:16:43

––––––––––––––––––––––––––––––––––––––––
Analyzed: Nazrin Rashidova / Sauret: 24 Études-caprices, Vol. 3
––––––––––––––––––––––––––––––––––––––––

DR Peak RMS Duration Track
––––––––––––––––––––––––––––––––––––––––
DR17 -0.72 dB -24.74 dB 14:44 01-24 Études-caprices, Op. 64: No. 14 in E-Flat Minor
DR16 -0.66 dB -22.84 dB 17:56 02-24 Études-caprices, Op. 64: No. 15 in B Major
DR17 -0.74 dB -24.04 dB 11:53 03-24 Études-caprices, Op. 64: No. 16 in G-Sharp Minor
DR18 -3.16 dB -27.10 dB 11:22 04-24 Études-caprices, Op. 64: No. 17 in E Major
DR14 -0.68 dB -21.43 dB 10:12 05-24 Études-caprices, Op. 64: No. 18 in C-Sharp Minor
DR16 -1.63 dB -23.39 dB 12:50 06-24 Études-caprices, Op. 64: No. 19 in A Major
––––––––––––––––––––––––––––––––––––––––

Number of tracks: 6
Official DR value: DR16

Samplerate: 96000 Hz
Channels: 2
Bits per sample: 24
Bitrate: 2581 kbps
Codec: FLAC
================================================================================


Thanks to the Original customer.