Neil Young - Return To Greendale (Live) (2020) [Official Digital Download 24/96]

Posted By: pyatak
Neil Young - Return To Greendale (Live) (2020) [Official Digital Download 24/96]

Neil Young - Return To Greendale (Live) (2020) [Official Digital Download 24/96]
FLAC (tracks) 24-bit/96 kHz | Front Cover | Time - 01:20:36 minutes | 1,68 GB
Rock | Label: Reprise, Official Digital Download

Neil Young’s 2003/04 Greendale tour with Crazy Horse will be chronicled on Return to Greendale, a live album and film coming out on November 6th. It will be available as a two-disc set or limited edition box set with two LPs, two CDs and a documentary, Inside Greendale, about the creation of the album.

Greendale is a rock opera about a fictional small town that is rocked by the death of a beloved police officer. Along the way, it addresses corporate greed, a scandal-obsessed media environment and Bush-era propaganda. It climaxes with one of the central figures, a teenage girl named Sun Green, heading off to Alaska to fight for the environment.

Two months before it came out, Young and Crazy Horse launched a tour of North American amphitheaters where they played all 10 songs from the album in sequence with a large cast of actors and dancers. Many fans bought tickets thinking they were seeing a traditional Neil Young and Crazy Horse concert and were none-too-thrilled with the show, even if it ended with a brief set of Crazy Horse classics.

TRACKLIST

1. Neil Young - Falling from Above (Live)
2. Neil Young - Double E (Live)
3. Neil Young - Devil's Sidewalk (Live)
4. Neil Young - Leave The Driving (Live)
5. Neil Young - Carmichael (Live)
6. Neil Young - Bandit (Live)
7. Neil Young - Grandpa's Interview (Live)
8. Neil Young - Bringin' Down Dinner (Live)
9. Neil Young - Sun Green (Live)
10. Neil Young - Be The Rain (Live)

foobar2000 1.6.2 / Dynamic Range Meter 1.1.1
log date: 2020-11-06 01:14:15

––––––––––––––––––––––––––––––––––––––––
Analyzed: Neil Young / Return To Greendale (Live)
––––––––––––––––––––––––––––––––––––––––

DR Peak RMS Duration Track
––––––––––––––––––––––––––––––––––––––––
DR12 0.00 dB -14.58 dB 7:41 01-Falling from Above (Live)
DR12 0.00 dB -14.11 dB 5:32 02-Double E (Live)
DR12 0.00 dB -14.86 dB 6:22 03-Devil's Sidewalk (Live)
DR13 -0.49 dB -15.63 dB 6:34 04-Leave The Driving (Live)
DR14 0.00 dB -16.14 dB 10:39 05-Carmichael (Live)
DR14 -2.52 dB -19.37 dB 6:34 06-Bandit (Live)
DR14 0.00 dB -15.67 dB 13:24 07-Grandpa's Interview (Live)
DR13 -0.48 dB -18.01 dB 3:17 08-Bringin' Down Dinner (Live)
DR13 0.00 dB -14.74 dB 12:19 09-Sun Green (Live)
DR11 0.00 dB -13.32 dB 8:19 10-Be The Rain (Live)
––––––––––––––––––––––––––––––––––––––––

Number of tracks: 10
Official DR value: DR13

Samplerate: 96000 Hz
Channels: 2
Bits per sample: 24
Bitrate: 3031 kbps
Codec: FLAC
================================================================================



Thanks to the Original customer.