Tags
Language
Tags

Nicolas Dautricourt & Dana Ciocarli - Benjamin Godard: Intégrale des sonates pour violon et piano (2016) [24/96]

Posted By: SERTiL
Nicolas Dautricourt & Dana Ciocarli - Benjamin Godard: Intégrale des sonates pour violon et piano (2016) [24/96]

Nicolas Dautricourt & Dana Ciocarli - Benjamin Godard: Intégrale des sonates pour violon et piano (2016)
FLAC (tracks) 24-bit/96 kHz | Time - 87:59 minutes | 1.54 GB
Studio Master, Official Digital Download | Artwork: Digital Booklet

In 1863 Martine de Béhague’s grandmother bought the site where the Romanian Embassy now stands. She commissioned Gabriel Hippolyte Alexandre Destailleur (1822-1893), the architect who restored the châteaux of Courances and Vaux-le-Vicomte, to build a Louis XV-style town house that would be an appropriate setting for her collection of 18th-century artefacts she planned to house there. The architect was internationally renowned, had connections with the Imperial family and had worked for the Rothschilds in Vienna among others. Destailleur owned an impressive collection of architectural plans and fittings. His profound understanding of period décor made him superbly quali ed. He also had access to period panelling and decorative embellishments that had come onto the market as a result of Haussmann’s innovations. The writer Henri de Régnier singled out the building as “one of the most beautiful houses in our city.” On March 27, 1939, the building was sold to the Romanian State and used to house its embassy.

In 1897/98, Gustave-Adolphe Gerhardt (1843-1921), a winner of the Prix de Rome for Architecture, architect of a number of notable residences and responsible for the restoration of the Collège de France, designed and completed a full-scale concert hall and private theatre, later named La Salle Byzantine, that drew on ancient basilical plans and con gurations of Byzantine churches. The theatre also served as a museum. Various sources suggest musical instruments and pain- tings were displayed there. In 1900, Le Monde Musical wrote that the hall could accommodate 600 people and that a large organ was installed there. The organ still stands in part and is one of the rare examples of an extant non-religious organ from the beginning of the 20th-century still in existence. …

Tracklist:

Benjamin Godard (1849 - 1895)

01. Sonate pour violon et piano No. 3 en Sol Mineur, Op. 9: I. Allegro moderato
02. Sonate pour violon et piano No. 3 en Sol Mineur, Op. 9: II. Scherzo (non troppo vivace)
03. Sonate pour violon et piano No. 3 en Sol Mineur, Op. 9: III. Andante
04. Sonate pour violon et piano No. 3 en Sol Mineur, Op. 9: IV. Intermezzo (un poco moderato)
05. Sonate pour violon et piano No. 3 en Sol Mineur, Op. 9: V. Allegro
06. Sonate pour violon et piano No. 1 en Do Mineur, Op. 1: I. Andante
07. Sonate pour violon et piano No. 1 en Do Mineur, Op. 1: II. Scherzo
08. Sonate pour violon et piano No. 1 en Do Mineur, Op. 1: III. Andante
09. Sonate pour violon et piano No. 1 en Do Mineur, Op. 1: IV. Finale (allegro vivace)
01. Sonate pour violon et piano No. 4 en La Bémol Majeur, Op. 12: I. Vivace ma non troppo
02. Sonate pour violon et piano No. 4 en La Bémol Majeur, Op. 12: II. Allegro vivace ma non presto
03. Sonate pour violon et piano No. 4 en La Bémol Majeur, Op. 12: III. Andante
04. Sonate pour violon et piano No. 4 en La Bémol Majeur, Op. 12: IV. Allegro molto
05. Sonate pour violon et piano No. 2 en La Mineur, Op. 2: I. Andante-allegro vivace e appassionato
06. Sonate pour violon et piano No. 2 en La Mineur, Op. 2: II. Intermezzo (vivace)
07. Sonate pour violon et piano No. 2 en La Mineur, Op. 2: III. Andante quasi adagio
08. Sonate pour violon et piano No. 2 en La Mineur, Op. 2: IV. Finale (allegro)

Personnel:
Nicolas Dautricourt, violon
Dana Ciocarlie, piano

foobar2000 1.3.7 / Dynamic Range Meter 1.1.1
log date: 2018-04-17 19:55:11

––––––––––––––––––––––––––––––––––––––––
Analyzed: Nicolas Dautricourt, Dana Ciocarli / Benjamin Godard: Intégrale des sonates pour violon et piano
––––––––––––––––––––––––––––––––––––––––

DR Peak RMS Duration Track
––––––––––––––––––––––––––––––––––––––––
DR14 -1.06 dB -20.50 dB 8:41 01-Sonate pour violon et piano No. 3 en Sol Mineur, Op. 9: I. Allegro moderato
DR15 -2.96 dB -22.45 dB 3:58 02-Sonate pour violon et piano No. 3 en Sol Mineur, Op. 9: II. Scherzo (non troppo vivace)
DR13 0.00 dB -20.14 dB 4:50 03-Sonate pour violon et piano No. 3 en Sol Mineur, Op. 9: III. Andante
DR13 0.00 dB -21.30 dB 2:57 04-Sonate pour violon et piano No. 3 en Sol Mineur, Op. 9: IV. Intermezzo (un poco moderato)
DR12 0.00 dB -17.42 dB 5:26 05-Sonate pour violon et piano No. 3 en Sol Mineur, Op. 9: V. Allegro
DR14 0.00 dB -17.60 dB 5:32 06-Sonate pour violon et piano No. 1 en Do Mineur, Op. 1: I. Andante
DR13 -0.56 dB -19.77 dB 3:00 07-Sonate pour violon et piano No. 1 en Do Mineur, Op. 1: II. Scherzo
DR15 -2.01 dB -22.58 dB 4:59 08-Sonate pour violon et piano No. 1 en Do Mineur, Op. 1: III. Andante
DR12 0.00 dB -15.31 dB 5:04 09-Sonate pour violon et piano No. 1 en Do Mineur, Op. 1: IV. Finale (allegro vivace)
DR13 0.00 dB -17.17 dB 7:53 01-Sonate pour violon et piano No. 4 en La Bémol Majeur, Op. 12: I. Vivace ma non troppo
DR14 0.00 dB -18.88 dB 4:10 02-Sonate pour violon et piano No. 4 en La Bémol Majeur, Op. 12: II. Allegro vivace ma non presto
DR15 0.00 dB -20.43 dB 7:02 03-Sonate pour violon et piano No. 4 en La Bémol Majeur, Op. 12: III. Andante
DR13 0.00 dB -16.32 dB 6:47 04-Sonate pour violon et piano No. 4 en La Bémol Majeur, Op. 12: IV. Allegro molto
DR13 0.00 dB -18.28 dB 7:16 05-Sonate pour violon et piano No. 2 en La Mineur, Op. 2: I. Andante-allegro vivace e appassionato
DR12 0.00 dB -16.79 dB 2:02 06-Sonate pour violon et piano No. 2 en La Mineur, Op. 2: II. Intermezzo (vivace)
DR13 -1.46 dB -20.18 dB 4:16 07-Sonate pour violon et piano No. 2 en La Mineur, Op. 2: III. Andante quasi adagio
DR13 -0.72 dB -17.85 dB 4:16 08-Sonate pour violon et piano No. 2 en La Mineur, Op. 2: IV. Finale (allegro)
––––––––––––––––––––––––––––––––––––––––

Number of tracks: 17
Official DR value: DR13

Samplerate: 96000 Hz
Channels: 2
Bits per sample: 24
Bitrate: 2606 kbps
Codec: FLAC
================================================================================


Thanks to the Original customer.