Tags
Language
Tags
April 2024
Su Mo Tu We Th Fr Sa
31 1 2 3 4 5 6
7 8 9 10 11 12 13
14 15 16 17 18 19 20
21 22 23 24 25 26 27
28 29 30 1 2 3 4

Franco Pavan, Laboratorio '600, Pino de Vittorio - Ninna nanna: Lullabies from Baroque Italy (2020) [24/96]

Posted By: SERTiL
Franco Pavan, Laboratorio '600, Pino de Vittorio - Ninna nanna: Lullabies from Baroque Italy (2020) [24/96]

Franco Pavan, Laboratorio '600, Pino de Vittorio - Ninna nanna: Lullabies from Baroque Italy (2020)
FLAC (tracks) 24-bit/96 kHz | Time - 78:21 minutes | 1.43 GB
Studio Master, Official Digital Download | Artwork: Digital Booklet

With Ninna Nanna the haunting tones, dramatic intensity and richly characterized singing of Pino De Vittorio once again grace a recording project led by Franco Pavan. Call it Wiegenlied, berceuse, nana, ninna nanna – or countless other terms from around the world – the lullaby, with the rocking of the child’s cradle, is possessed of a captivating charm, all neatly captured in this new collection with the lulling of De Vittorio’s hypnotic voice.

A potent attraction of Ninna Nanna is that the pieces – from the Baroque era – mainly originate from the Mezzogiorno, the southern part of Italy – including the Apulian area from which hails Pino De Vittorio. Seeking to sidestep the well-known and frequently-played, Franco Pavan, who plays the theorbo and the Southern Italian chitarra battente as well as directing Laboratorio ’600, has delved into the popular culture of these regions for inspiration, additionally adding instrumental pieces such as the Tarantella del Presepe by Cristofaro Caresana or the traditional Pastorale calabrese.

By way of the lullaby texts selected here, Pavan conjures up an atmosphere populated by fireflies, the powerful Greek mythological gods of Sleep and Death, Hypnos and Thanatos, Federico García Lorca lecturing on lullabies and referring to the acute sadness of the cradle song, as well as the Virgin Mary and sundry saints being corralled into underpinning the doctrines of the Catholic Church.

Tracklist:
01. Dormi dormi ben mio
02. Oi nenna nenna
03. Oh, oh, oh, o picciriddu dormi rivo
04. Trotta trotta cavallo memè
05. Pastorale calabrese
06. La bonasera
07. Ninna di Borgia
08. Ninna di Radicena
09. Pastorale (1)
10. Lucciola lucciola vien a me
11. Lucciola lucciola vien da me
12. Lanterna mâgica
13. Fa la nana la mi cuncheta
14. Ninna nanna
15. Aria, che i paesani napoletani sonano con la zampogna
16. Venite, ò pastori
17. Piva
18. Nat'è il Bambino Giesù
19. Pastorale (2)
20. Dolce gioia della mamma
21. Dormi Benigne Jesu
22. Tarantella del presepe
23. Dormi dormi io già non voglio
24. Canna Austina

Personnel:
Pino De Vittorio, voice
Laboratorio ’600:
Elisa La Marca, lute
Flora Papadopoulos, harp
Franco Pavan, theorbo, archlute, chitarra battente & direction

foobar2000 1.3.7 / Dynamic Range Meter 1.1.1
log date: 2020-01-27 18:25:52

––––––––––––––––––––––––––––––––––––––––
Analyzed: Pino de Vittorio, Laboratorio '600 & Franco Pavan / Ninna nanna: Lullabies from Baroque Italy
––––––––––––––––––––––––––––––––––––––––

DR Peak RMS Duration Track
––––––––––––––––––––––––––––––––––––––––
DR13 -5.10 dB -21.48 dB 5:16 01-Dormi dormi ben mio
DR13 -5.44 dB -21.73 dB 4:48 02-Oi nenna nenna
DR13 -2.96 dB -20.81 dB 4:03 03-Oh, oh, oh, o picciriddu dormi rivo
DR16 -1.39 dB -21.28 dB 1:40 04-Trotta trotta cavallo memè
DR14 -6.75 dB -25.02 dB 1:35 05-Pastorale calabrese
DR13 -3.87 dB -19.85 dB 4:56 06-La bonasera
DR12 -5.18 dB -23.42 dB 2:37 07-Ninna di Borgia
DR14 -3.12 dB -22.40 dB 0:45 08-Ninna di Radicena
DR14 -7.60 dB -24.24 dB 3:20 09-Pastorale (1)
DR14 -4.47 dB -20.56 dB 4:01 10-Lucciola lucciola vien a me
DR13 -5.11 dB -19.80 dB 1:21 11-Lucciola lucciola vien da me
DR13 -6.95 dB -24.84 dB 2:30 12-Lanterna mâgica
DR13 -7.36 dB -22.95 dB 5:02 13-Fa la nana la mi cuncheta
DR12 -8.39 dB -24.16 dB 2:25 14-Ninna nanna
DR13 -5.56 dB -23.29 dB 0:43 15-Aria, che i paesani napoletani sonano con la zampogna
DR13 -5.10 dB -21.93 dB 6:03 16-Venite, ò pastori
DR12 -8.50 dB -24.81 dB 1:57 17-Piva
DR13 -4.36 dB -20.58 dB 3:43 18-Nat'è il Bambino Giesù
DR13 -9.32 dB -26.96 dB 3:57 19-Pastorale (2)
DR15 -3.16 dB -21.43 dB 5:10 20-Dolce gioia della mamma
DR13 -5.89 dB -22.70 dB 2:37 21-Dormi Benigne Jesu
DR13 -5.50 dB -22.76 dB 2:24 22-Tarantella del presepe
DR12 -3.87 dB -20.36 dB 3:54 23-Dormi dormi io già non voglio
DR14 -2.29 dB -19.74 dB 3:46 24-Canna Austina
––––––––––––––––––––––––––––––––––––––––

Number of tracks: 24
Official DR value: DR13

Samplerate: 96000 Hz
Channels: 2
Bits per sample: 24
Bitrate: 2681 kbps
Codec: FLAC
================================================================================


Thanks to the Original customer.