Ole Amund Gjersvik - Goodbye (2019) [Official Digital Download]

Posted By: pyatak
Ole Amund Gjersvik - Goodbye (2019) [Official Digital Download]

Ole Amund Gjersvik - Goodbye (2019) [Official Digital Download]
FLAC (tracks) 24-bit/44.1 kHz | Front Cover | Time - 47:27 minutes | 370 MB
Jazz | Label: Acoustic Records, Official Digital Download

Upcoming album release! Ole Amund Gjersvik & Tore Hegdahl «Goodbye»! Piano and double bass duets including ballads, psalms and Scandinavian folk songs… Recorded in Aarstad church (Årstad kirke) in Bergen, Norway. It will be released March 15.

TRACKLIST

1. Ole Amund Gjersvik - For All We Know
2. Ole Amund Gjersvik, Tore Hegdahl - Med Ögon Kjensliga For Grönt
3. Ole Amund Gjersvik, Tore Hegdahl - Travels
4. Ole Amund Gjersvik, Tore Hegdahl - Rän Och Rättferdig (Svensk Folketone)
5. Ole Amund Gjersvik, Tore Hegdahl - Black Orpheus
6. Ole Amund Gjersvik, Tore Hegdahl - You Do
7. Ole Amund Gjersvik, Tore Hegdahl - Ned I Vester Soli Glader
8. Ole Amund Gjersvik, Tore Hegdahl - Ingen Stund Är Så Som Denna
9. Ole Amund Gjersvik, Tore Hegdahl - O Que Tinka De Ser
10. Ole Amund Gjersvik, Tore Hegdahl - Goodbye

foobar2000 1.3.16 / Dynamic Range Meter 1.1.1
log date: 2019-03-15 11:46:59

––––––––––––––––––––––––––––––––––––––––
Analyzed: Ole Amund Gjersvik, Tore Hegdahl / Goodbye (1-9)
Ole Amund Gjersvik / Goodbye (10)
––––––––––––––––––––––––––––––––––––––––

DR Peak RMS Duration Track
––––––––––––––––––––––––––––––––––––––––
DR13 -9.92 dB -27.50 dB 4:51 02-Med Ögon Kjensliga For Grönt
DR14 -6.63 dB -27.03 dB 4:29 03-Travels
DR12 -9.26 dB -26.40 dB 2:32 04-Rän Och Rättferdig (Svensk Folketone)
DR13 -9.18 dB -26.19 dB 4:25 05-Black Orpheus
DR16 -7.74 dB -31.48 dB 6:33 06-You Do
DR14 -9.62 dB -28.68 dB 2:29 07-Ned I Vester Soli Glader
DR15 -9.39 dB -29.51 dB 3:13 08-Ingen Stund Är Så Som Denna
DR13 -7.29 dB -25.36 dB 5:29 09-O Que Tinka De Ser
DR15 -7.85 dB -29.09 dB 6:35 10-Goodbye
DR15 -4.50 dB -25.43 dB 6:58 01-For All We Know
––––––––––––––––––––––––––––––––––––––––

Number of tracks: 10
Official DR value: DR14

Samplerate: 44100 Hz
Channels: 2
Bits per sample: 24
Bitrate: 1108 kbps
Codec: FLAC
================================================================================



Thanks to the Original customer.