Dan Jones, BBC National Orchestra of Wales - On Chesil Beach (Original Motion Picture Soundtrack) (2018) [24/48]

Posted By: SERTiL
Dan Jones, BBC National Orchestra of Wales - On Chesil Beach (Original Motion Picture Soundtrack) (2018) [24/48]

Dan Jones, BBC National Orchestra of Wales - On Chesil Beach (Original Motion Picture Soundtrack) (2018)
FLAC (tracks) 24-bit/48 kHz | Time - 74:29 minutes | 686 MB
Studio Master, Official Digital Download | Artwork: Front Cover

The film adaptation of On Chesil Beach pays tribute to the 2007 novella (and Booker Prize shortlist entry) by British writer Ian McEwan. Creating sweeping and poignant soundscapes to accompany the film is Dan Jones - a multi award-winning composer and sound designer whose recent credits include Louis Theroux’s documentary feature, My Scientology Movie, the primetime BBC drama series SS-GB and The Replacement, the second series of BBC’s hugely successful The Hollow Crown, Menno Meyjes’ feature, De Reünie, Carnival’s The Lost Honour of Christopher Jefferies and Ecosse Films’ The Great Fire. Other notable film credits include Shadow of the Vampire, starring John Malkovich and Willem Dafoe, which received two Oscar nominations (Dan himself being long-listed by Variety as an Oscar contender for his score); The Tonto Woman, also nominated for an Oscar in the short films category; and Max, starring John Cusack and Noah Taylor, for which he won his first Ivor Novello award. Musician Esther Yoo also features in the soundtrack, taking it to new heights. Esther has performed with the BBC orchestras, Deutsche Radio Philharmonic, Gävle, KBS, RTÈ and Iceland symphony orchestras, and the philharmonic orchestras of Seoul, Warsaw and Kansai. She has worked with conductors such as Vladimir Ashkenazy, Andrew Davis, Karina Canellakis, Jaime Martin, Micha? Nesterowicz, Santtu-Matias Rouvali, Osmo Vänskä and Christopher Warren-Green. Festival appearances include Seoul International Music Festival, Ghent Festival of Flanders, Festival de Fénétrange, Festival du Château de Chambord and Dvo?ák Prague Festival. Chamber music highlights also include her Wigmore Hall debut in 2016 and two BBC-recorded performances with the Z.E.N. Trio. Born in the U.S. and raised in Europe since the age of 6, Esther began playing the violin at the age of 4 and made her concerto debut aged 8. In 2012, she was one of the youngest ever prizewinners of the Queen Elizabeth Competition.

Tracklist:
01. Jones: Talking to the Birds
02. Jones: Solemn Love
03. Elgar: Variations on an Original Theme, Op. 36" Enigma-9. Nimrod (Adagio)
04. Haydn: String Quartet in G Major, Hob. III:81 (Op.77 No.1)-1. Allegro moderato
05. Jones: Open Door
06. Jones: Into the Woods
07. Jones: Love at First Sight
08. Jones: Walk in the Meadows
09. Beethoven: String Quartet in B Flat Major, Op. 130-6. Finale (Allegro)
10. Jones: Walk from Henley
11. Jones: Lulworth Cove
12. J.S. Bach: Partita for Violin Solo No. 3 in E Major, BWV 1006-1. Preludio
13. Mozart: Symphony No. 35 in D Major, K.385 Haffner-1. Allegro con spirito
14. Jones: Pandora's Piano
15. Jones: Fear of Sex
16. Schubert: String Quartet No. 14 in D Minor, D. 810" Death and the Maiden-1. Allegro
17. Jones: You may enter
18. Jones: You can change your mind
19. Jones: Factory Tennis
20. J.S. Bach: Suite for Cello Solo No. 1 in G Major, BWV 1007-1. Prélude
21. Jones: I'd do anything
22. Jones: Ponting Electronics
23. Jones: Buried Memory
24. Schubert: String Quartet No. 14 in D Minor, D. 810" Death and the Maiden-2. Andante con moto
25. Jones: Cold Shoulder (Violin Solo Version)
26. Jones: Chloe
27. Jones: Arrival at Wigmore Hall
28. Mozart: String Quintet in D Major, K.593-1. Larghetto-Allegro
29. Jones: My Promise to you
30. Jones: Date on the River
31. Rachmaninov: Symphonic Dances, Op. 45-1. Non allegro
32. Jones: Cold Shoulder

foobar2000 1.3.7 / Dynamic Range Meter 1.1.1
log date: 2018-05-18 11:33:00

––––––––––––––––––––––––––––––––––––––––
Analyzed: Arthur Grumiaux & Arpad Gérecz & Georges Janzer & Max Lesueur & Eva Czako / On Chesil Beach (Original Motion Picture Soundtrack) (1)
BBC National Orchestra of Wales & Dan Jones / On Chesil Beach (Original Motion Picture Soundtrack) (2-13)
Esther Yoo & BBC National Orchestra of Wales & Dan Jones / On Chesil Beach (Original Motion Picture Soundtrack) (14-24)
Esther Yoo & Zsolt-Tihamér Visontay & Yukiko Ogura & Timothy Walden / On Chesil Beach (Original Motion Picture Soundtrack) (25-28)
Esther Yoo / On Chesil Beach (Original Motion Picture Soundtrack) (29)
Graeme Mitchison & James Sherlock / On Chesil Beach (Original Motion Picture Soundtrack) (30)
Lynn Harrell / On Chesil Beach (Original Motion Picture Soundtrack) (31)
Paul Israel & BBC National Orchestra of Wales & Dan Jones / On Chesil Beach (Original Motion Picture Soundtrack) (32)
––––––––––––––––––––––––––––––––––––––––

DR Peak RMS Duration Track
––––––––––––––––––––––––––––––––––––––––
DR15 -5.24 dB -26.09 dB 4:15 28-Mozart: String Quintet in D Major, K.593-1. Larghetto-Allegro
DR9 -24.42 dB -39.69 dB 0:50 01-Jones: Talking to the Birds
DR12 -0.20 dB -20.84 dB 4:32 03-Elgar: Variations on an Original Theme, Op. 36" Enigma-9. Nimrod (Adagio)
DR11 -19.93 dB -39.71 dB 0:49 05-Jones: Open Door
DR11 -7.06 dB -23.22 dB 1:51 10-Jones: Walk from Henley
DR12 -3.14 dB -19.77 dB 1:36 13-Mozart: Symphony No. 35 in D Major, K.385 Haffner-1. Allegro con spirito
DR9 -16.90 dB -33.81 dB 1:19 14-Jones: Pandora's Piano
DR11 -0.24 dB -17.33 dB 0:53 17-Jones: You may enter
DR10 -22.20 dB -38.97 dB 0:38 18-Jones: You can change your mind
DR11 -5.58 dB -21.44 dB 1:22 19-Jones: Factory Tennis
DR12 -4.41 dB -23.07 dB 2:13 21-Jones: I'd do anything
DR11 -19.34 dB -36.22 dB 1:37 27-Jones: Arrival at Wigmore Hall
DR12 -8.02 dB -23.91 dB 2:32 32-Jones: Cold Shoulder
DR10 -6.09 dB -24.57 dB 1:37 02-Jones: Solemn Love
DR12 -5.33 dB -23.96 dB 1:39 06-Jones: Into the Woods
DR16 -16.67 dB -39.15 dB 1:05 07-Jones: Love at First Sight
DR11 -14.01 dB -29.87 dB 2:03 08-Jones: Walk in the Meadows
DR9 -17.63 dB -32.22 dB 1:04 11-Jones: Lulworth Cove
DR12 -8.07 dB -28.46 dB 2:47 15-Jones: Fear of Sex
DR10 -15.60 dB -31.86 dB 1:02 23-Jones: Buried Memory
DR12 -9.80 dB -28.46 dB 2:28 25-Jones: Cold Shoulder (Violin Solo Version)
DR11 -17.87 dB -35.51 dB 4:28 26-Jones: Chloe
DR11 -11.85 dB -31.32 dB 1:19 29-Jones: My Promise to you
DR11 -11.23 dB -30.40 dB 1:59 30-Jones: Date on the River
DR14 -4.00 dB -23.64 dB 5:30 04-Haydn: String Quartet in G Major, Hob. III:81 (Op.77 No.1)-1. Allegro moderato
DR14 -4.15 dB -24.33 dB 0:45 09-Beethoven: String Quartet in B Flat Major, Op. 130-6. Finale (Allegro)
DR13 -3.24 dB -22.12 dB 1:54 16-Schubert: String Quartet No. 14 in D Minor, D. 810" Death and the Maiden-1. Allegro
DR15 -4.29 dB -26.09 dB 9:51 24-Schubert: String Quartet No. 14 in D Minor, D. 810" Death and the Maiden-2. Andante con moto
DR12 -10.98 dB -27.95 dB 3:52 12-J.S. Bach: Partita for Violin Solo No. 3 in E Major, BWV 1006-1. Preludio
DR13 -9.68 dB -28.86 dB 2:34 31-Rachmaninov: Symphonic Dances, Op. 45-1. Non allegro
DR14 -2.87 dB -22.35 dB 2:17 20-J.S. Bach: Suite for Cello Solo No. 1 in G Major, BWV 1007-1. Prélude
DR12 -7.62 dB -26.66 dB 2:05 22-Jones: Ponting Electronics
––––––––––––––––––––––––––––––––––––––––

Number of tracks: 32
Official DR value: DR12

Samplerate: 48000 Hz
Channels: 2
Bits per sample: 24
Bitrate: 1217 kbps
Codec: FLAC
================================================================================


Thanks to the Original customer.