Tags
Language
Tags

Orchestre National Avignon-Provence - Reynaldo Hahn - Ô mon bel inconnu (2021) [Official Digital Download]

Posted By: pyatak
Orchestre National Avignon-Provence - Reynaldo Hahn - Ô mon bel inconnu (2021) [Official Digital Download]

Orchestre National Avignon-Provence - Reynaldo Hahn - Ô mon bel inconnu (2021) [Official Digital Download]
FLAC (tracks) 24-bit/44.1 kHz | Front Cover | Time - 59:30 minutes | 580 MB
Classical | Label: Bru Zane, Official Digital Download

How about a trip back to the Annees Folles in the company of Sacha Guitry? With this musical comedy composed by Reynaldo Hahn, which was a triumph for Arletty, the Palazzetto Bru Zane reveals the hectic adventures of the hatter Prosper Aubertin. He dreams of extramarital adventures, but among the replies to the classified ad he places, how surprised he is to discover letters from his wife, his daughter and his maid! The piece was Guitrys second collaboration with Hahn. What [else] do you need to be happy? as the chambermaid asks in Act Three? Veronique Gens bubbling with mischief, and the Orchestre National dAvignon dynamised by the conducting of Samuel Jean.

TRACKLIST

1. Orchestre National Avignon-Provence - I. Ouverture
2. Orchestre National Avignon-Provence - II. Air. "Miel, sel, thé…"
3. Orchestre National Avignon-Provence - III. Ensemble. "Cette fille n'a pas menti"
4. Orchestre National Avignon-Provence - IV. Couplet. "Allons, Monsieur, laissez-moi faire"
5. Orchestre National Avignon-Provence - V. Duo. "Mais ! vous m'avez pincé le derrière !"
6. Orchestre National Avignon-Provence - VI. Air. "Je suis celle que vous cherchez"
7. Orchestre National Avignon-Provence - I. Entracte
8. Orchestre National Avignon-Provence - II. Lever de rideau
9. Orchestre National Avignon-Provence - III. Strophes. "C'est très vilain d'être infidèle"
10. Orchestre National Avignon-Provence - IV. Air. "Au lieu, vois-tu, de les confondre"
11. Orchestre National Avignon-Provence - V. Couplets. "Je veux d'abord un chapeau beige"
12. Orchestre National Avignon-Provence - VI. Duetto. "Allons, Monsieur, veuillez finir !…"
13. Orchestre National Avignon-Provence - VII. Couplets. "J'connais l'rayon d'la bonn't'rie"
14. Orchestre National Avignon-Provence - I. Intermède
15. Orchestre National Avignon-Provence - II. Trio. "Ô mon bel inconnu"
16. Orchestre National Avignon-Provence - III. Air du coup de téléphone. "Eh ! bien mettez d'abord un A"
17. Orchestre National Avignon-Provence - IV. Finale. "Partons !"
18. Orchestre National Avignon-Provence - I. Entracte
19. Orchestre National Avignon-Provence - II. Couplets. "Monsieur, c'est la maison rêvée"
20. Orchestre National Avignon-Provence - III. Entrée d'Antoinette
21. Orchestre National Avignon-Provence - IV. Entrée de Félicie
22. Orchestre National Avignon-Provence - V. Chanson à deux voix. "Qu'est-c' qu'il faut pour être heureux ?"
23. Orchestre National Avignon-Provence - VI. Entrée de Marie-Anne
24. Orchestre National Avignon-Provence - VII. Colloque. "Le mariage ! Ah ! ben, voyons"
25. Orchestre National Avignon-Provence - VIII. Couplets. "Est-c' qu'il est mal ?"
26. Orchestre National Avignon-Provence - IX. Entrée de Claude
27. Orchestre National Avignon-Provence - X. Dialogue. "Mais oui, se taire"
28. Orchestre National Avignon-Provence - XI. Air et Ensemble. "À ma naissance"

foobar2000 1.6.2 / Dynamic Range Meter 1.1.1
log date: 2021-02-17 18:42:49

––––––––––––––––––––––––––––––––––––––––
Analyzed: Orchestre National Avignon-Provence / Reynaldo Hahn: Ô mon bel inconnu
––––––––––––––––––––––––––––––––––––––––

DR Peak RMS Duration Track
––––––––––––––––––––––––––––––––––––––––
DR11 -2.28 dB -19.34 dB 2:17 01-I. Ouverture
DR14 -5.06 dB -23.64 dB 2:19 02-II. Air. "Miel, sel, thé…"
DR12 -1.94 dB -18.97 dB 3:22 03-III. Ensemble. "Cette fille n'a pas menti"
DR12 -3.87 dB -21.05 dB 2:23 04-IV. Couplet. "Allons, Monsieur, laissez-moi faire"
DR12 -3.50 dB -21.11 dB 1:33 05-V. Duo. "Mais ! vous m'avez pincé le derrière !"
DR15 -2.92 dB -22.19 dB 4:18 06-VI. Air. "Je suis celle que vous cherchez"
DR13 -7.42 dB -25.93 dB 2:29 07-I. Entracte
DR11 -11.21 dB -28.35 dB 0:35 08-II. Lever de rideau
DR12 -3.54 dB -21.34 dB 3:24 09-III. Strophes. "C'est très vilain d'être infidèle"
DR14 -2.79 dB -23.04 dB 4:06 10-IV. Air. "Au lieu, vois-tu, de les confondre"
DR13 -4.27 dB -23.42 dB 3:09 11-V. Couplets. "Je veux d'abord un chapeau beige"
DR13 -2.16 dB -22.29 dB 1:13 12-VI. Duetto. "Allons, Monsieur, veuillez finir !…"
DR13 -5.35 dB -23.53 dB 1:30 13-VII. Couplets. "J'connais l'rayon d'la bonn't'rie"
DR11 -7.09 dB -25.27 dB 1:40 14-I. Intermède
DR11 -2.92 dB -18.78 dB 3:34 15-II. Trio. "Ô mon bel inconnu"
DR15 -0.73 dB -20.94 dB 1:11 16-III. Air du coup de téléphone. "Eh ! bien mettez d'abord un A"
DR12 -0.16 dB -17.31 dB 2:54 17-IV. Finale. "Partons !"
DR12 -4.66 dB -24.19 dB 1:32 18-I. Entracte
DR15 -5.27 dB -24.20 dB 1:55 19-II. Couplets. "Monsieur, c'est la maison rêvée"
DR10 -13.21 dB -26.79 dB 0:48 20-III. Entrée d'Antoinette
DR9 -14.75 dB -26.79 dB 0:35 21-IV. Entrée de Félicie
DR13 -3.96 dB -21.00 dB 1:02 22-V. Chanson à deux voix. "Qu'est-c' qu'il faut pour être heureux ?"
DR10 -12.83 dB -27.20 dB 0:37 23-VI. Entrée de Marie-Anne
DR13 -3.79 dB -22.87 dB 1:37 24-VII. Colloque. "Le mariage ! Ah ! ben, voyons"
DR14 -4.81 dB -23.64 dB 2:17 25-VIII. Couplets. "Est-c' qu'il est mal ?"
DR11 -11.20 dB -26.70 dB 0:32 26-IX. Entrée de Claude
DR13 -4.33 dB -23.56 dB 1:40 27-X. Dialogue. "Mais oui, se taire"
DR14 -0.81 dB -19.41 dB 5:15 28-XI. Air et Ensemble. "À ma naissance"
––––––––––––––––––––––––––––––––––––––––

Number of tracks: 28
Official DR value: DR12

Samplerate: 44100 Hz
Channels: 2
Bits per sample: 24
Bitrate: 1333 kbps
Codec: FLAC
================================================================================



Thanks to the Original customer.