Tags
Language
Tags

Daniel Rowland & Maja Bogdanović - Pas de deux (2020) [Official Digital Download 24/96]

Posted By: SERTiL
Daniel Rowland & Maja Bogdanović - Pas de deux (2020) [Official Digital Download 24/96]

Daniel Rowland & Maja Bogdanović - Pas de deux (2020)
FLAC (tracks) 24-bit/96 kHz | Time - 72:55 minutes | 1.23 GB
Studio Master, Official Digital Download | Artwork: Front Cover

Maja and Daniel: We are overjoyed to be presenting this new recording “Pas de deux”, with many new pieces by composer friends - it’s a project that’s very close to our hearts. The great Sonata by Ravel is in a way our kaleidoscope, a looking glass that takes us both back and forward in time, and both of those simultaneously.

Our journey begins with the slightest of pieces. ‘Raindrops’ is a charming vignette by the 10 year old Sibelius, whose love of nature would a decade or so later of course give us some of the greatest works in the symphonic repertoire.
Deeply moved by the death of Pope John Paul II Penderecki in 2005 wrote the Ciaconna in memoriam Giovanni Paulo II Ciaconna, for string orchestra. His transcription of the piece is a self-contained, independent artistic statement: subtle and virtuosic, filled with emotions of a genuinely Romantic kind.

The Interior Castle by Peteris Vasks was a text written by St. Teresa of Ávila, Spanish Carmelite nun and famed mystic, in 1577 as a guide for spiritual development through service and prayer. The work is conceived as a tryptich of pure, deeply felt, reverential music, interrupted my two frenetic, disturbing, dark passages. The love and belief conquers the dark forces.
We asked our friend Craig White to arrange a Debussy piano prelude and he created for this disc this beautiful version of the 9th piano prelude of Book 1.

Sicilian cellist/composer Giovanni Sollima is one of the most colorful, eclectic, musical personalities of his generation. Heimat Terra: the title is based on a beautiful text by the anthropologist Edgar Morin.

Marcelo Nisinman is one of the great tango artists of our time, a brilliant bandoneon virtuoso and great friend as well as a uniquely personal, eclectic composer of music that is deeply infused by the world of tango but very aware of classical avant-gardistic writing.
Marcelo Nisinman got to know Astor Piazzolla as a child, when Piazzolla and his quintet used to come to rehearse at his parents apartment in central Buenos Aires. From Marcelo we heard many stories about Piazzolla, his passion for boxing and shark fishing, his motto ‘no risk, no life’ and his larger than life personality. It seems fitting to end this record with three early ‘Parisian’ tangos that Piazzolla wrote while living in the city in the early 1950’s.

Tracklist:
01. Vattendroppar, JS 216 (1:48)
02. Ciaccona in memoriam Giovanni Paolo II (7:00)
03. Castillo interior (12:41)
04. Préludes, Livre 1, L. 117: IX. La sérénade interrompue (3:13)
05. Sonate "A la mémoire de Claude Debussy", M. 73: I. Allegro (4:56)
06. Sonate "A la mémoire de Claude Debussy", M. 73: II. Très vif (3:24)
07. Sonate "A la mémoire de Claude Debussy", M. 73: III. Lent (6:11)
08. Sonate "A la mémoire de Claude Debussy", M. 73: IV. Vif, avec entrain (5:58)
09. Heimat Terra (6:30)
10. Die Albträume des Todes (11:47)
11. Three Tangos: I. S.V.P. (2:49)
12. Three Tangos: II. Tzigane tango (3:12)
13. Three Tangos: III. Prepárense (3:37)

foobar2000 1.3.7 / Dynamic Range Meter 1.1.1
log date: 2020-03-10 22:24:19

––––––––––––––––––––––––––––––––––––––––
Analyzed: Daniel Rowland & Maja Bogdanović / Pas de deux
––––––––––––––––––––––––––––––––––––––––

DR Peak RMS Duration Track
––––––––––––––––––––––––––––––––––––––––
DR16 -22.47 dB -46.90 dB 1:48 01-Vattendroppar, JS 216
DR13 -3.64 dB -23.68 dB 7:00 02-Ciaccona in memoriam Giovanni Paolo II
DR13 -4.13 dB -24.50 dB 12:41 03-Castillo interior
DR18 -4.39 dB -28.10 dB 3:13 04-Préludes, Livre 1, L. 117: IX. La sérénade interrompue
DR13 -6.08 dB -25.34 dB 4:56 05-Sonate "A la mémoire de Claude Debussy", M. 73: I. Allegro
DR13 -4.42 dB -23.20 dB 3:24 06-Sonate "A la mémoire de Claude Debussy", M. 73: II. Très vif
DR15 -5.27 dB -28.81 dB 6:11 07-Sonate "A la mémoire de Claude Debussy", M. 73: III. Lent
DR15 -2.90 dB -22.93 dB 5:58 08-Sonate "A la mémoire de Claude Debussy", M. 73: IV. Vif, avec entrain
DR13 -4.56 dB -22.43 dB 6:30 09-Heimat Terra
DR16 -1.65 dB -24.13 dB 11:47 10-Die Albträume des Todes
DR14 -5.26 dB -26.32 dB 2:49 11-Three Tangos: I. S.V.P.
DR15 -8.51 dB -30.58 dB 3:12 12-Three Tangos: II. Tzigane tango
DR15 -8.15 dB -27.42 dB 3:37 13-Three Tangos: III. Prepárense
––––––––––––––––––––––––––––––––––––––––

Number of tracks: 13
Official DR value: DR14

Samplerate: 96000 Hz
Channels: 2
Bits per sample: 24
Bitrate: 2408 kbps
Codec: FLAC
================================================================================


Thanks to the Original customer.