Raquele Magalhaes & Sanja Bizjak - Patchwork (Works for Flute and Piano) (2016) [Official Digital Download]

Posted By: SERTiL
Raquele Magalhaes & Sanja Bizjak - Patchwork (Works for Flute and Piano) (2016) [Official Digital Download]

Raquele Magalhaes & Sanja Bizjak - Patchwork (Works for Flute and Piano) (2016)
FLAC (tracks) 24-bit/44.1 kHz | Time - 54:15 minutes | 482 MB
Studio Master, Official Digital Download | Artwork: Digital booklet

Patchwork is a chance to join Eastern-European composers of the XXth century. Sonatas for flute and piano from Prokofiev, Enescu, Schulhoff and Muczynski show the strong personalities of the universal Masters. Those vibrant musics are made up with dancing & scintillating rhythms. The soul of the Slavic culture is being displayed here, on the model of warm and coloured mosaics of fabrics. Poetic dream-like and tender worlds are then arising, that enhance the unique musical sound of this duo.

TRACKLIST

George Enescu (1881-1955)

1 Enescu: Cantabile et Presto 05:35

Erwin Schulhoff (1894-1942)

2 Schulhoff: Flute and Piano Sonata: I. Allegro Moderato 05:09
3 Schulhoff: Flute and Piano Sonata: II. Scherzo (Allegro giocoso) 01:31
4 Schulhoff: Flute and Piano Sonata: III. Aria (Andante) 02:49
5 Schulhoff: Flute and Piano Sonata: IV. Rondo-Finale (Allegro molto gajo) 02:36

Sergei Prokofjew (1891-1953)

6 Prokofjew: Flute and Piano Sonata, Op. 94: I. Moderato 08:31
7 Prokofjew: Flute and Piano Sonata, Op. 94: II. Scherzo 05:00
8 Prokofjew: Flute and Piano Sonata, Op. 94: III. Andante 03:34
9 Prokofjew: Flute and Piano Sonata, Op. 94: IV. Allegro con brio 07:02

Robert Muczynski (1929-2010)

10 Muczynski: Flute and Piano Sonata, Op. 14: I. Allegro decisio 03:48
11 Muczynski: Flute and Piano Sonata, Op. 14: II. Scherzo (Vivace) 01:52
12 Muczynski: Flute and Piano Sonata, Op. 14: III. Andante 03:41
13 Muczynski: Flute and Piano Sonata, Op. 14: IV. Allegro con moto 03:13

PERSONNEL
Raquele Magalhaes, flute
Sanja Bizjak, piano

foobar2000 1.3.7 / Dynamic Range Meter 1.1.1
log date: 2017-10-16 16:20:03

––––––––––––––––––––––––––––––––––––––––
Analyzed: Raquele Magalhaes, Sanja Bizjak / Patchwork (Works for Flute and Piano)
––––––––––––––––––––––––––––––––––––––––

DR Peak RMS Duration Track
––––––––––––––––––––––––––––––––––––––––
DR16 -1.03 dB -22.94 dB 5:35 01-Cantabile et Presto
DR14 -0.76 dB -21.65 dB 5:09 02-Flute and Piano Sonata: I. Allegro Moderato
DR14 -2.18 dB -21.32 dB 1:31 03-Flute and Piano Sonata: II. Scherzo (Allegro giocoso)
DR12 -8.99 dB -26.74 dB 2:49 04-Flute and Piano Sonata: III. Aria (Andante)
DR13 -1.91 dB -20.31 dB 2:36 05-Flute and Piano Sonata: IV. Rondo-Finale (Allegro molto gajo)
DR15 -0.66 dB -22.11 dB 8:31 06-Flute and Piano Sonata, Op. 94: I. Moderato
DR16 -0.85 dB -21.57 dB 5:00 07-Flute and Piano Sonata, Op. 94: II. Scherzo
DR13 -8.70 dB -27.13 dB 3:34 08-Flute and Piano Sonata, Op. 94: III. Andante
DR14 -1.61 dB -20.23 dB 7:02 09-Flute and Piano Sonata, Op. 94: IV. Allegro con brio
DR15 -0.79 dB -20.87 dB 3:48 10-Flute and Piano Sonata, Op. 14: I. Allegro decisio
DR14 -2.35 dB -21.64 dB 1:52 11-Flute and Piano Sonata, Op. 14: II. Scherzo (Vivace)
DR14 -8.73 dB -29.46 dB 3:41 12-Flute and Piano Sonata, Op. 14: III. Andante
DR16 -0.75 dB -21.25 dB 3:13 13-Flute and Piano Sonata, Op. 14: IV. Allegro con moto
––––––––––––––––––––––––––––––––––––––––

Number of tracks: 13
Official DR value: DR14

Samplerate: 48000 Hz
Channels: 2
Bits per sample: 24
Bitrate: 1255 kbps
Codec: FLAC
================================================================================


Thanks to the Original customer.