Patterson Sutton Duo - Still Life (2020) [Official Digital Download 24/96]

Posted By: pyatak
Patterson Sutton Duo - Still Life (2020) [Official Digital Download 24/96]

Patterson Sutton Duo - Still Life (2020) [Official Digital Download 24/96]
FLAC (tracks) 24-bit/96 kHz | Front Cover | Time - 01:01:38 minutes | 996 MB
Classical | Label: Ravello Records, Official Digital Download

The trailblazing duo of Kimberly Patterson and Patrick Sutton are champions of the budding cello & guitar genre of chamber music. The Patterson/Sutton Duo and composer Stephen Goss have worked together over many years and this album represents the fruits of their musical collaboration. This collection of Goss’s complete works for cello and guitar is a kaleidoscopic journey through the evocative sound world of this instrumental pairing. It represents a substantial contribution to the standard cello and guitar repertoire by one of the guitar world’s most sought after composers.

Borrowing heavily from a cadre of virtuosic avant-garde rock and jazz guitar legends, Park of Idols gets the album off to a boisterous start. Motherlands takes us on a nostalgic and highly contrasting tour of Jewish, Arabic, Russian and American folk music. This is followed by the premiere recording of the original version of Goss’s The Autumn Song, a languid meditation on the nature of loss based on ancient Chinese poetry. Goss’s beautiful Welsh Folk Songs are already a well-loved piece of chamber music and are heard here for the first time on cello and guitar. They are a haunting highlight of this recording. Commissioned by the Patterson/Sutton Duo in 2018, the album finishes with Still Life, a suite that celebrates the life, work, and inspirations of the American abstract expressionist painter, Clyfford Still.

Featuring multiple world premieres and a diverse array of styles, STILL LIFE: Collected Music for Cello & Guitar by Stephen Goss attempts to push the medium of cello and guitar to its limits.

TRACKLIST

1. Patterson Sutton Duo - Park of Idols: I. Jump Start
2. Patterson Sutton Duo - Park of Idols: II. Cold Dark Matter
3. Patterson Sutton Duo - Park of Idols: III. Fractured Loop
4. Patterson Sutton Duo - Park of Idols: IV. Malabar Hill
5. Patterson Sutton Duo - Park of Idols: V. The Raw
6. Patterson Sutton Duo - Park of Idols: VI. Sharjah
7. Patterson Sutton Duo - Motherlands: I. Incantation
8. Patterson Sutton Duo - Motherlands: II. Roah Veroh
9. Patterson Sutton Duo - Motherlands: III. Hymn
10. Patterson Sutton Duo - Motherlands: IV. Kosichka
11. Patterson Sutton Duo - Motherlands: V. Motherless Child
12. Patterson Sutton Duo - Motherlands: VI. Beirut
13. Patterson Sutton Duo - The Autumn Song
14. Patterson Sutton Duo - Welsh Folksongs: No. 1, Dafydd y Garreg Wen
15. Patterson Sutton Duo - Welsh Folksongs: No. 2, Wrth fynd hefo Deio i Dywyn
16. Patterson Sutton Duo - Welsh Folksongs: No. 3, Suo-gân
17. Patterson Sutton Duo - Welsh Folksongs: No. 4, Lliw Gwyn Rhosyn yr Haf
18. Patterson Sutton Duo - Welsh Folksongs: No. 5, Lisa Lân
19. Patterson Sutton Duo - Welsh Folksongs: No. 6, Hela'r 'Sgyfarnog
20. Patterson Sutton Duo - Still Life: I. Black (PH-929, 1974)
21. Patterson Sutton Duo - Still Life: II. Groove
22. Patterson Sutton Duo - Still Life: III. Blue (PH-247, 1951)
23. Patterson Sutton Duo - Still Life: IV. Scherzo
24. Patterson Sutton Duo - Still Life: V. Space (PH-960, 1960)
25. Patterson Sutton Duo - Still Life: VI. Albion
26. Patterson Sutton Duo - Still Life: VII. Colour (PH-972, 1959)

foobar2000 1.3.16 / Dynamic Range Meter 1.1.1
log date: 2020-06-30 00:37:11

––––––––––––––––––––––––––––––––––––––––
Analyzed: Patterson Sutton Duo / Still Life
––––––––––––––––––––––––––––––––––––––––

DR Peak RMS Duration Track
––––––––––––––––––––––––––––––––––––––––
DR12 -0.50 dB -16.73 dB 2:01 01-I. Jump Start
DR13 -4.00 dB -29.87 dB 3:35 02-II. Cold Dark Matter
DR14 -3.06 dB -22.16 dB 1:36 03-III. Fractured Loop
DR11 -10.28 dB -27.52 dB 0:57 04-IV. Malabar Hill
DR13 -8.71 dB -30.77 dB 1:40 05-V. The Raw
DR13 -0.50 dB -16.35 dB 2:03 06-VI. Sharjah
DR13 -0.60 dB -21.78 dB 1:50 07-I. Incantation
DR14 -0.50 dB -17.50 dB 2:55 08-II. Roah Veroh
DR13 -7.65 dB -27.82 dB 3:01 09-III. Hymn
DR13 -0.50 dB -19.00 dB 1:35 10-IV. Kosichka
DR12 -8.21 dB -25.74 dB 3:13 11-V. Motherless Child
DR16 -0.50 dB -19.00 dB 2:12 12-VI. Beirut
DR15 -6.54 dB -28.31 dB 8:35 13-The Autumn Song
DR12 -3.87 dB -23.25 dB 2:04 14-No. 1, Dafydd y Garreg Wen
DR12 -0.50 dB -20.58 dB 1:01 15-No. 2, Wrth fynd hefo Deio i Dywyn
DR12 -8.53 dB -27.17 dB 3:39 16-No. 3, Suo-gân
DR11 -2.17 dB -20.01 dB 1:20 17-No. 4, Lliw Gwyn Rhosyn yr Haf
DR11 -6.02 dB -25.37 dB 2:22 18-No. 5, Lisa Lân
DR10 -0.50 dB -21.01 dB 0:52 19-No. 6, Hela'r 'Sgyfarnog
DR12 -2.47 dB -22.25 dB 1:47 20-I. Black (PH-929, 1974)
DR12 -0.50 dB -20.14 dB 1:39 21-II. Groove
DR13 -1.14 dB -22.72 dB 2:41 22-III. Blue (PH-247, 1951)
DR14 -1.45 dB -22.79 dB 1:21 23-IV. Scherzo
DR16 -6.31 dB -30.98 dB 2:57 24-V. Space (PH-960, 1960)
DR12 -8.61 dB -26.07 dB 2:27 25-VI. Albion
DR14 -0.50 dB -18.71 dB 2:15 26-VII. Colour (PH-972, 1959)
––––––––––––––––––––––––––––––––––––––––

Number of tracks: 26
Official DR value: DR13

Samplerate: 96000 Hz
Channels: 2
Bits per sample: 24
Bitrate: 2520 kbps
Codec: FLAC
================================================================================



Thanks to the Original customer.