Paul Mccartney - Paul Is Live (2019) [Official Digital Download 24/96]

Posted By: SERTiL
Paul Mccartney - Paul Is Live (2019) [Official Digital Download 24/96]

Paul Mccartney - Paul Is Live (2019)
FLAC (tracks) 24-bit/96 kHz | Time - 77:06 minutes | 1.56 GB
Studio Master, Official Digital Download | Artwork: Front Cover

Newly remastered at Abbey Road Studios: Paul Is Live, recorded during the tour in support of Off The Ground, was Paul's fifth live album and is famous for its title's double meaning and the rumour-scotching cover art. Ever since the 1969 release of Abbey Road, there had been hoax-fuelled stories of Paul’s untimely death. The new title was a way of saying that this was most definitely not the case. The artwork is a play on the famous Abbey Road cover, with Paul crossing that same street but wearing shoes and using his left hand this time. (Originally, his bare feet and the holding of a cigarette in his right hand had supposedly been clues that it wasn't him on the cover.) As well as a raft of solo, Wings and Beatles favourites, the album also offers an insight into the band's sound checks, the final three songs all being improvised during rehearsals in various locations on the tour.

Tracklist:
1 Drive My Car (Live In Kansas City) 02:32
2 Let Me Roll It (Live In Boulder) 04:12
3 Looking For Changes (Live In Kansas City) 02:40
4 Peace In The Neighbourhood (Live In Boulder) 04:54
5 All My Loving (Live In New York) 02:16
6 Robbie's Bit (Thanks Chet) (Live In Charlotte) 01:57
7 Good Rockin' Tonight (Live In Charlotte) 02:51
8 We Can Work It Out (Live In New York) 02:39
9 Hope Of Deliverance (Live In New York) 03:32
10 Michelle (Live In Boulder) 02:56
11 Biker Like An Icon (Live In Boulder) 03:40
12 Here, There And Everywhere (Live In Parramatta, Sydney) 02:29
13 My Love (Live In San Antonio) 04:06
14 Magical Mystery Tour (Live In Parramatta, Sydney) 03:15
15 C’Mon People (Live In Kansas City) 05:38
16 Lady Madonna (Live In Atlanta) 02:30
17 Paperback Writer (Live In Charlotte) 02:36
18 Penny Lane (Live In Boulder) 03:02
19 Live And Let Die (Live In Boulder) 03:52
20 Kansas City (Live In Kansas City) 03:53
21 Welcome To Soundcheck (Live) 00:41
22 Hotel In Benidorm (Soundcheck) (Live In Boulder) 02:00
23 I Wanna Be Your Man (Soundcheck) (Live In Parramatta, Sydney) 02:36
24 A Fine Day (Soundcheck) (Live In New York) 06:19

Personnel:
Paul McCartney, lead vocals, acoustic, electric and bass guitars, piano
Linda McCartney, backing vocals, keyboards, percussion, autoharp
Hamish Stuart, acoustic and electric guitars, acoustic and electric bass guitars, backing vocals
Robbie McIntosh, acoustic and electric guitars, backing vocals
Paul 'Wix' Wickens, keyboards, accordion, acoustic guitar, percussion, backing vocals
Blair Cunningham, drums, percussion

Digitally remastered

Produced by Paul McCartney

foobar2000 1.3.7 / Dynamic Range Meter 1.1.1
log date: 2019-07-12 01:15:02

––––––––––––––––––––––––––––––––––––––––
Analyzed: Paul McCartney / Paul Is Live
––––––––––––––––––––––––––––––––––––––––

DR Peak RMS Duration Track
––––––––––––––––––––––––––––––––––––––––
DR9 -0.70 dB -10.89 dB 2:33 01-Drive My Car
DR9 -0.42 dB -11.47 dB 4:12 02-Let Me Roll It
DR7 -1.10 dB -9.64 dB 2:41 03-Looking For Changes
DR10 -0.60 dB -11.62 dB 4:54 04-Peace In The Neighbourhood
DR9 -0.60 dB -10.55 dB 2:17 05-All My Loving
DR13 -1.33 dB -17.98 dB 1:57 06-Robbie's Bit (Thanks Chet)
DR11 -0.60 dB -12.26 dB 2:52 07-Good Rockin' Tonight
DR10 -0.60 dB -12.03 dB 2:40 08-We Can Work It Out
DR11 -0.60 dB -11.84 dB 3:33 09-Hope Of Deliverance
DR12 -0.60 dB -13.86 dB 2:57 10-Michelle
DR10 -0.60 dB -10.99 dB 3:40 11-Biker Like An Icon
DR11 -0.60 dB -13.32 dB 2:30 12-Here, There And Everywhere
DR10 -0.60 dB -12.27 dB 4:07 13-My Love
DR10 -0.60 dB -11.23 dB 3:15 14-Magical Mystery Tour
DR9 -0.60 dB -10.76 dB 5:38 15-C’Mon People
DR10 -0.60 dB -11.18 dB 2:31 16-Lady Madonna
DR10 -0.60 dB -11.07 dB 2:37 17-Paperback Writer
DR11 -0.60 dB -12.02 dB 3:02 18-Penny Lane
DR11 -0.60 dB -13.06 dB 3:53 19-Live And Let Die
DR10 -0.60 dB -11.06 dB 3:54 20-Kansas City
DR10 -3.46 dB -22.45 dB 0:41 21-Welcome To Soundcheck
DR13 -0.60 dB -15.69 dB 2:01 22-Hotel In Benidorm (Soundcheck)
DR9 -1.30 dB -12.21 dB 2:37 23-I Wanna Be Your Man (Soundcheck)
DR10 -0.60 dB -11.78 dB 6:20 24-A Fine Day (Soundcheck)
––––––––––––––––––––––––––––––––––––––––

Number of tracks: 24
Official DR value: DR10

Samplerate: 96000 Hz
Channels: 2
Bits per sample: 24
Bitrate: 2847 kbps
Codec: FLAC
================================================================================


Thanks to the Original customer.