Paul Weller - Fat Pop (2021) [Official Digital Download]

Posted By: pyatak
Paul Weller - Fat Pop (2021) [Official Digital Download]

Paul Weller - Fat Pop (2021) [Official Digital Download]
FLAC (tracks) 24-bit/44.1 kHz | Front Cover | Time - 38:55 minutes | 443 MB
Pop Rock | Label: Polydor, Official Digital Download

Though he only released the superb ‘On Sunset’ last July, ‘Fat Pop (Volume 1)’ is Paul Weller’s lockdown record. Faced with no chance of performing ‘On Sunset’ live for the foreseeable future amid the pandemic, he instead delved into a vault of ideas he’d saved up on his phone, recording with his band remotely at first and then polishing things off with studio sessions over the summer.

Weller’s made enviable use of the time. The album is a delight: a generous collection of expertly crafted pop tracks, delivered with both the finesse of an artist of five decades’ experience and the lightness of touch that only comes when you’re having a blast. Never has the Modfather sounded quite so at ease.

Opener ‘Cosmic Fringes’ bursts into life with a pump of slick electro-pop synth, Weller singing with playful braggadocio: “I don’t believe my luck when I see him in the mirror.” It’s followed by a sunny soulful track, co-written with Lia Metcalfe of rising Liverpudlians The Mysterines (Weller’s a fan of the band and wanted the two of them to sing together). ‘Moving Canvas’, meanwhile, pays tribute to brilliant Iggy Pop: ‘You meet his gaze and then you turn to stone,” Weller sings. ‘Shades Of Blue’ is a touching pop vignette co-written and performed along with his daughter Leah. This might be in some part an isolation record, but it’s one that reaches outwards, bathed in a positive, collaborative glow.

TRACKLIST

1. Paul Weller - Cosmic Fringes
2. Paul Weller - True
3. Paul Weller - Fat Pop
4. Paul Weller - Shades Of Blue
5. Paul Weller - Glad Times
6. Paul Weller - Cobweb / Connections
7. Paul Weller - Testify
8. Paul Weller - That Pleasure
9. Paul Weller - Failed
10. Paul Weller - Moving Canvas
11. Paul Weller - In Better Times
12. Paul Weller - Still Glides The Stream

foobar2000 1.6.1 / Dynamic Range Meter 1.1.1
log date: 2021-05-13 15:29:28

––––––––––––––––––––––––––––––––––––––––
Analyzed: Paul Weller / Fat Pop
––––––––––––––––––––––––––––––––––––––––

DR Peak RMS Duration Track
––––––––––––––––––––––––––––––––––––––––
DR8 0.00 dB -8.69 dB 2:21 01-Cosmic Fringes
DR7 0.00 dB -8.09 dB 2:08 02-True
DR7 0.00 dB -8.98 dB 3:20 03-Fat Pop
DR6 0.00 dB -8.23 dB 3:07 04-Shades Of Blue
DR6 0.00 dB -8.85 dB 4:04 05-Glad Times
DR6 0.00 dB -8.98 dB 2:57 06-Cobweb / Connections
DR6 0.00 dB -7.16 dB 2:54 07-Testify
DR8 0.00 dB -9.25 dB 3:32 08-That Pleasure
DR6 0.00 dB -7.94 dB 2:44 09-Failed
DR6 0.00 dB -8.54 dB 2:55 10-Moving Canvas
DR5 0.00 dB -8.35 dB 4:48 11-In Better Times
DR7 0.00 dB -9.27 dB 4:08 12-Still Glides The Stream
––––––––––––––––––––––––––––––––––––––––

Number of tracks: 12
Official DR value: DR6

Samplerate: 44100 Hz
Channels: 2
Bits per sample: 24
Bitrate: 1558 kbps
Codec: FLAC
================================================================================



Thanks to the Original customer.