Tags
Language
Tags

Peggy Lee - Christmas Carousel (1960/2021) [Official Digital Download 24/96]

Posted By: pyatak
foobar2000 1.6.2 / Dynamic Range Meter 1.1.1
log date: 2021-09-05 07:54:45

––––––––––––––––––––––––––––––––––––––––
Analyzed: Peggy Lee / Christmas Carousel
––––––––––––––––––––––––––––––––––––––––

DR Peak RMS Duration Track
––––––––––––––––––––––––––––––––––––––––
DR12 -0.30 dB -13.93 dB 2:05 01-I Like A Sleighride (Jingle Bells)
DR11 -0.38 dB -14.72 dB 2:31 02-The Christmas Song (Merry Christmas To You)
DR12 -0.30 dB -15.08 dB 2:48 03-Don't Forget To Feed The Reindeer
DR10 -1.27 dB -15.12 dB 2:42 04-The Star Carol
DR12 -0.30 dB -15.60 dB 2:40 05-The Christmas List
DR12 -0.30 dB -14.36 dB 2:22 06-Christmas Carousel
DR12 -0.30 dB -15.10 dB 2:18 07-Santa Claus Is Comin' To Town
DR11 -0.32 dB -13.78 dB 2:54 08-The Christmas Waltz
DR13 -0.30 dB -15.97 dB 3:20 09-The Christmas Riddle
DR11 -0.30 dB -12.93 dB 1:43 10-The Tree
DR12 -0.30 dB -14.26 dB 2:11 11-Deck The Halls
DR9 -1.56 dB -14.95 dB 2:07 12-White Christmas
––––––––––––––––––––––––––––––––––––––––

Number of tracks: 12
Official DR value: DR11

Samplerate: 96000 Hz
Channels: 2
Bits per sample: 24
Bitrate: 3039 kbps
Codec: FLAC
================================================================================



TRACKLIST

1. Peggy Lee - I Like A Sleighride (Jingle Bells)
2. Peggy Lee - The Christmas Song (Merry Christmas To You)
3. Peggy Lee - Don't Forget To Feed The Reindeer
4. Peggy Lee - The Star Carol
5. Peggy Lee - The Christmas List
6. Peggy Lee - Christmas Carousel
7. Peggy Lee - Santa Claus Is Comin' To Town
8. Peggy Lee - The Christmas Waltz
9. Peggy Lee - The Christmas Riddle
10. Peggy Lee - The Tree
11. Peggy Lee - Deck The Halls
12. Peggy Lee - White Christmas



Thanks to the Original customer.