Peter Serkin - Schubert - Piano Sonata No. 18 (Remastered) (1966/2020) [Official Digital Download 24/192]

Posted By: pyatak
Peter Serkin - Schubert - Piano Sonata No. 18 (Remastered) (1966/2020) [Official Digital Download 24/192]

Peter Serkin - Schubert - Piano Sonata No. 18 (Remastered) (1966/2020) [Official Digital Download 24/192]
FLAC (tracks) 24-bit/192 kHz | Front Cover | Time - 43:34 minutes |1,69 GB
Classical | Label: Sony Classical, Official Digital Download

In Memoriam of Grammy winning pianist Peter Serkin (1947–2020), a “brilliant instrumentalist, sensitive, original interpreter and performer of uncommon vitality” (Michael Steinberg)

“Thank you so much for your interest in my old recordings and for being so enterprising and bringing them out in a box set now. When I first heard about this project I thought that some of those recordings are not good enough […]. I have listened to [them] over the weekend, and I’ve had a change of heart about it. Even the ones I would not play that way now still may have redeeming aspects, and some of them I actually enjoyed quite a lot. …” – Peter Serkin Peter Serkin was closely involved in the preparation for this edition but sadly did not live to see its release. He died on February 1, 2020 at his home in Red Hook, N. Y.

TRACKLIST

Franz Schubert (1797 - 1828): Piano Sonata in G Major, D. 894 (Op. 78), "Fantasia":

1 Piano Sonata in G Major, D. 894 (Op. 78), "Fantasia": I. Molto moderato e cantabile
2 Piano Sonata in G Major, D. 894 (Op. 78), "Fantasia": II. Andante
3 Piano Sonata in G Major, D. 894 (Op. 78), "Fantasia": III. Menuetto. Allegro moderato - Trio
4 Piano Sonata in G Major, D. 894 (Op. 78), "Fantasia": IV. Allegretto

foobar2000 1.3.16 / Dynamic Range Meter 1.1.1
log date: 2020-06-02 01:44:13

––––––––––––––––––––––––––––––––––––––––
Analyzed: Peter Serkin / Schubert: Piano Sonata No. 18 (Remastered)
––––––––––––––––––––––––––––––––––––––––

DR Peak RMS Duration Track
––––––––––––––––––––––––––––––––––––––––
DR15 -0.32 dB -20.74 dB 20:45 01-Piano Sonata in G Major, D. 894 (Op. 78), "Fantasia": I. Molto moderato e cantabile
DR14 -0.32 dB -20.62 dB 8:36 02-Piano Sonata in G Major, D. 894 (Op. 78), "Fantasia": II. Andante
DR14 -0.42 dB -20.73 dB 4:40 03-Piano Sonata in G Major, D. 894 (Op. 78), "Fantasia": III. Menuetto. Allegro moderato - Trio
DR14 -0.33 dB -20.76 dB 9:35 04-Piano Sonata in G Major, D. 894 (Op. 78), "Fantasia": IV. Allegretto
––––––––––––––––––––––––––––––––––––––––

Number of tracks: 4
Official DR value: DR14

Samplerate: 192000 Hz
Channels: 2
Bits per sample: 24
Bitrate: 5550 kbps
Codec: FLAC
================================================================================



Thanks to the Original customer.