Poppy - A Very Poppy Christmas (2020) [Official Digital Download]

Posted By: pyatak
Poppy - A Very Poppy Christmas (2020) [Official Digital Download]

Poppy - A Very Poppy Christmas (2020) [Official Digital Download]
FLAC (tracks) 24-bit/44.1 kHz | Front Cover | Time - 10:24 minutes | 117 MB
Pop, Holiday | Label: Sumerian Records, Official Digital Download

Fresh off her controversial Grammy nomination for Best Metal Performance, self-described "post-genre" artist Poppy has dropped her timely new EP, A Very Poppy Christmas, which marks a sharp left turn from the aggro heaviness of her last full-length, I Disagree. The four-track release features three originals plus a stunning cover of the yuletide classic "Silver Bells," and it leans into the sweet-sad nostalgic vibe that can sometimes come with the winter holidays, channeling the slowcore melancholia of Low or even Deftones at their mellowest

TRACKLIST

01. Poppy - I Like Presents
02. Poppy - I Won't Be Home For Christmas
03. Poppy - Kiss In The Snow
04. Poppy - Silver Bells

foobar2000 1.6.2 / Dynamic Range Meter 1.1.1
log date: 2020-12-02 22:05:59

––––––––––––––––––––––––––––––––––––––––
Analyzed: Poppy / A Very Poppy Christmas
––––––––––––––––––––––––––––––––––––––––

DR Peak RMS Duration Track
––––––––––––––––––––––––––––––––––––––––
DR6 -0.09 dB -8.59 dB 3:09 01-I Like Presents
DR6 -0.03 dB -7.31 dB 2:31 02-I Won't Be Home For Christmas
DR6 0.00 dB -7.23 dB 2:25 03-Kiss In The Snow
DR6 0.00 dB -7.65 dB 2:19 04-Silver Bells
––––––––––––––––––––––––––––––––––––––––

Number of tracks: 4
Official DR value: DR6

Samplerate: 44100 Hz
Channels: 2
Bits per sample: 24
Bitrate: 1585 kbps
Codec: FLAC
================================================================================



Thanks to the Original customer.