La Rêveuse, Benjamin Perrot & Florence Bolton - Purcell: Devotional Songs & Anthems (2015) [Official Digital Download 24/96]

Posted By: SERTiL
La Rêveuse, Benjamin Perrot & Florence Bolton - Purcell: Devotional Songs & Anthems (2015) [Official Digital Download 24/96]

La Rêveuse, Benjamin Perrot & Florence Bolton - Purcell: Devotional Songs & Anthems (2015)
FLAC (tracks) 24-bit/96 kHz | Time - 69:48 minutes | 1.15 GB
Studio Master, Official Digital Download | Artwork: Digital Booklet

Purcell's devotional songs for three male voices are still little known and shrouded in a certain mystery. Yet these meditations on the frailty of human existence are among his finest and most moving works. Gifted with profound intuition of the emotions that can emerge from the union of text and music, this formidable composer, who understood and served the vocal music of his time so well, continues here the work begun by the masters of the preceding generation such as Henry Lawes.

Tracklist:
01. Hear me, O Lord, the great support, Z.133 (devotional song)
02. O, I’m sick of life, Z.140 (devotional song)
03. Since God so tender a regard, Z143 (devotional song)
04. I. Adagio
05. II. Allegro
06. III. Adagio-Allegro-Adagio
07. Plung’d in the confines of despair, Z.142 (devotional song)
08. Blessed is he that considereth the poor, Z.7 (anthem)
09. The Aspiration: How long, great God, Z.189 (devotional song)
10. Division No. 8 in G Major
11. When on my sick bed I languish, Z.144 (devotional song)
12. With sick and famish’d eyes, Z.200 (devotional song)
13. Division in G Minor RI-140
14. I was glad, Z.19 (Harmonia Sacra version, anthem)
15. Lord, not to us, Z.137 (anthem)

Composers:
Finger, Gottfried (c.1660-1730)
Purcell, Henry (1659-95)

Personnel:
La Rêveuse:
Jeffrey Thompson, tenor
Marc Mauillon, tenor
Geoffroy Buffière, bass
Florence Bolton, viola da gamba
Pierre Gallon, harpsichord & organ
Benjamin Perrot, theorba

foobar2000 1.3.7 / Dynamic Range Meter 1.1.1
log date: 2018-03-14 15:48:43

––––––––––––––––––––––––––––––––––––––––
Analyzed: La Rêveuse, Benjamin Perrot and Florence Bolton / Purcell: Devotional Songs & Anthems (1-8)
La Rêveuse, Florence Bolton and Benjamin Perrot / Purcell: Devotional Songs & Anthems (9-15)
––––––––––––––––––––––––––––––––––––––––

DR Peak RMS Duration Track
––––––––––––––––––––––––––––––––––––––––
DR15 -0.96 dB -19.98 dB 6:37 01-Hear me, O Lord, the great support, Z.133 (devotional song)
DR11 -5.27 dB -20.06 dB 2:09 05-II. Allegro
DR11 -6.94 dB -23.38 dB 3:32 06-III. Adagio-Allegro-Adagio
DR14 -0.31 dB -20.08 dB 5:31 07-Plung’d in the confines of despair, Z.142 (devotional song)
DR14 -0.08 dB -18.35 dB 5:27 08-Blessed is he that considereth the poor, Z.7 (anthem)
DR12 -4.84 dB -21.17 dB 4:01 10-Division No. 8 in G Major
DR14 -0.14 dB -19.42 dB 6:46 12-With sick and famish’d eyes, Z.200 (devotional song)
DR13 -1.71 dB -19.71 dB 2:35 15-Lord, not to us, Z.137 (anthem)
DR15 -0.90 dB -20.65 dB 5:59 02-O, I’m sick of life, Z.140 (devotional song)
DR15 -0.38 dB -20.18 dB 5:00 03-Since God so tender a regard, Z143 (devotional song)
DR10 -6.83 dB -21.81 dB 2:57 04-I. Adagio
DR13 -2.68 dB -19.90 dB 3:55 09-The Aspiration: How long, great God, Z.189 (devotional song)
DR16 0.00 dB -21.31 dB 6:06 11-When on my sick bed I languish, Z.144 (devotional song)
DR14 -4.07 dB -22.22 dB 3:59 13-Division in G Minor RI-140
DR14 -0.25 dB -18.95 dB 5:23 14-I was glad, Z.19 (Harmonia Sacra version, anthem)
––––––––––––––––––––––––––––––––––––––––

Number of tracks: 15
Official DR value: DR13

Samplerate: 96000 Hz
Channels: 2
Bits per sample: 24
Bitrate: 2438 kbps
Codec: FLAC
================================================================================


Thanks to the Original customer.