Quatuor Midi-Minuit - Carnet de voyage, Livre 1, Beethoven & Cras (2019) [Official Digital Download 24/88]

Posted By: SERTiL
Quatuor Midi-Minuit - Carnet de voyage, Livre 1, Beethoven & Cras (2019) [Official Digital Download 24/88]

Quatuor Midi-Minuit - Carnet de voyage, Livre 1, Beethoven & Cras (2019)
FLAC (tracks) 24-bit/88.2 kHz | Time - 67:39 minutes | 1.01 GB
Studio Master, Official Digital Download | Artwork: Digital Booklet

On this album, we have juxtaposed the work of two musicians who, at a first glance, don't have anything in common. One is Jean Cras, captain of a french ship and a dilettante musician born at the turn of the twentieth century, the other is Ludwig van Beethoven, who needs no introduction. And yet, if we decided to use a looking glass and examine the threads that bind all human destiny together, we would realize that Cras read the works of Beethoven religiously before going on watch, and maybe this man who was subject to the whims of Mother Nature had found in the great composer a master who himself was used to great internal tempests.

Tracklist:
01. Quatuor à cordes No. 3, Op. 18: I. Allegro
02. Quatuor à cordes No. 3, Op. 18: II. Andante con moto
03. Quatuor à cordes No. 3, Op. 18: III. Allegro giocoso alla Slovacca
04. Quatuor à cordes No. 3, Op. 18: IV. Presto
05. Premier quatuor « À ma Bretagne »: I. Lent. Allegro
06. Premier quatuor « À ma Bretagne »: II. Calme
07. Premier quatuor « À ma Bretagne »: III. Vite et léger. Modéré
08. Premier quatuor « À ma Bretagne »: IV. Lent. Allegro molto

foobar2000 1.3.7 / Dynamic Range Meter 1.1.1
log date: 2019-05-15 19:10:03

––––––––––––––––––––––––––––––––––––––––
Analyzed: Quatuor Midi-Minuit / Carnet de voyage, Livre 1, Beethoven & Cras
––––––––––––––––––––––––––––––––––––––––

DR Peak RMS Duration Track
––––––––––––––––––––––––––––––––––––––––
DR14 -4.02 dB -23.04 dB 8:20 01-Quatuor à cordes No. 3, Op. 18: I. Allegro
DR14 -5.02 dB -24.54 dB 8:58 02-Quatuor à cordes No. 3, Op. 18: II. Andante con moto
DR13 -6.16 dB -23.69 dB 3:42 03-Quatuor à cordes No. 3, Op. 18: III. Allegro giocoso alla Slovacca
DR14 -4.99 dB -22.89 dB 6:43 04-Quatuor à cordes No. 3, Op. 18: IV. Presto
DR12 -4.73 dB -20.34 dB 12:31 05-Premier quatuor « À ma Bretagne »: I. Lent. Allegro
DR12 -6.15 dB -22.71 dB 8:44 06-Premier quatuor « À ma Bretagne »: II. Calme
DR12 -5.54 dB -22.45 dB 7:31 07-Premier quatuor « À ma Bretagne »: III. Vite et léger. Modéré
DR13 -3.95 dB -20.66 dB 11:14 08-Premier quatuor « À ma Bretagne »: IV. Lent. Allegro molto
––––––––––––––––––––––––––––––––––––––––

Number of tracks: 8
Official DR value: DR13

Samplerate: 88200 Hz
Channels: 2
Bits per sample: 24
Bitrate: 2211 kbps
Codec: FLAC
================================================================================


Thanks to the Original customer.