Quatuor Modigliani - Portraits (2019) [Official Digital Download 24/96]

Posted By: SERTiL
Quatuor Modigliani - Portraits (2019) [Official Digital Download 24/96]

Quatuor Modigliani - Portraits (2019)
FLAC (tracks) 24-bit/96 kHz | Time - 64:28 minutes | 1.09 GB
Studio Master, Official Digital Download | Artwork: Digital Booklet

Modigliani, one of the greatest portrait painters, is the inspiration for this journey made up of pieces with unique characters. Designed as a portrait gallery, this new opus brings together masterpieces and discoveries. The look or hear the ear, linger on the curves, the lines, the singular melodic drawing of each of these partitions. Filigree is another portrait, that of the quartet.

Tracklist:
1. 4 Pieces for String Quartet, Op. 81: III. Capriccio. Andante con moto 05:55
2. String Quartet No. 1: III. Scherzo 05:14
3. Crisantemi, SC. 65 06:56
4. String Quartet No. 2, Op. 26: II. Intermezzo 03:44
5. String Quartet in A Minor: II. Scherzo. Allegro vivo, con spirito 06:33
6. String Quartet, Op. 11: II. Adagio 08:49
7. 5 Minuets, D. 89: No. 3 04:23
8. String Quartet on the Theme 'B-la-F': III. Serenata alla spagnola. Allegretto 02:17
9. Two pieces for String Quartet, Op. 36a: II. Polka 02:27
10. Langsamer Satz für Streichquartett 09:38
11. String Quartet in F Major, Hob.III:17: II. Andante Cantabile 04:00
12. Divertimento in F Major, K. 138/125c: III. Presto 02:02
13. Plink, Plank, Plunk! 02:30

foobar2000 1.3.7 / Dynamic Range Meter 1.1.1
log date: 2019-01-11 21:52:58

––––––––––––––––––––––––––––––––––––––––
Analyzed: Quatuor Modigliani / QPortraits
––––––––––––––––––––––––––––––––––––––––

DR Peak RMS Duration Track
––––––––––––––––––––––––––––––––––––––––
DR13 -1.04 dB -18.81 dB 5:56 01-4 Pieces for String Quartet, Op. 81 - III. Capriccio. Andante con moto
DR17 -0.90 dB -21.54 dB 5:14 02-String Quartet No. 1 - III. Scherzo
DR14 -1.35 dB -22.06 dB 6:56 03-Crisantemi, SC. 65
DR13 -0.16 dB -19.52 dB 3:44 04-String Quartet No. 2, Op. 26 - II. Intermezzo
DR13 -1.31 dB -20.14 dB 6:34 05-String Quartet in A Minor - II. Scherzo. Allegro vivo, con spirito
DR13 -5.15 dB -23.59 dB 8:49 06-String Quartet, Op. 11 - II. Adagio
DR14 -6.98 dB -26.94 dB 4:23 07-5 Minuets, D. 89 - No. 3
DR13 -0.26 dB -22.04 dB 2:17 08-String Quartet on the Theme 'B-la-F' - III. Serenata alla spagnola. Allegretto
DR15 -0.10 dB -21.56 dB 2:27 09-Two pieces for String Quartet, Op. 36a - II. Polka
DR14 -1.13 dB -21.80 dB 9:38 10-Langsamer Satz fur Streichquartett
DR12 -12.74 dB -31.36 dB 4:00 11-String Quartet in F Major, Hob.III -17 - II. Andante Cantabile
DR12 -3.74 dB -21.61 dB 2:02 12-Divertimento in F Major, K. 138/125c - III. Presto
DR17 -1.41 dB -23.81 dB 2:31 13-Plink, Plank, Plunk!
––––––––––––––––––––––––––––––––––––––––

Number of tracks: 13
Official DR value: DR14

Samplerate: 96000 Hz
Channels: 2
Bits per sample: 24
Bitrate: 2148 kbps
Codec: FLAC
================================================================================


Thanks to the Original customer.