Tags
Language
Tags

Quincy Handley - Summertime Melodies (2021) [Official Digital Download]

Posted By: pyatak
Quincy Handley - Summertime Melodies (2021) [Official Digital Download]

Quincy Handley - Summertime Melodies (2021) [Official Digital Download]
FLAC (tracks) 24-bit/48 kHz | Front Cover | Time - 30:02 minutes | 375 MB
Classical, Vocal | Label: Quincy Handley, Official Digital Download

On June 11 Quincy Handley released her new album Summertime Melodies recorded at her studio.

TRACKLIST

1. Quincy Handley - It's Wrong
2. Quincy Handley - Back to You
3. Quincy Handley - I See My Angel
4. Quincy Handley - I Don't Know
5. Quincy Handley - Just Me and You
6. Quincy Handley - Little Bit
7. Quincy Handley - Rain
8. Quincy Handley - Sunday Morning

foobar2000 1.6.2 / Dynamic Range Meter 1.1.1
log date: 2021-06-15 12:05:53

––––––––––––––––––––––––––––––––––––––––
Analyzed: Quincy Handley / Summertime Melodies
––––––––––––––––––––––––––––––––––––––––

DR Peak RMS Duration Track
––––––––––––––––––––––––––––––––––––––––
DR10 0.00 dB -13.22 dB 3:09 01-It's Wrong
DR10 0.00 dB -11.84 dB 3:45 02-Back to You
DR10 0.00 dB -11.77 dB 3:44 03-I See My Angel
DR10 0.00 dB -10.98 dB 3:06 04-I Don't Know
DR8 -0.21 dB -9.52 dB 4:19 05-Just Me and You
DR10 0.00 dB -11.80 dB 3:42 06-Little Bit
DR8 0.00 dB -10.09 dB 3:29 07-Rain
DR11 0.00 dB -11.83 dB 4:51 08-Sunday Morning
––––––––––––––––––––––––––––––––––––––––

Number of tracks: 8
Official DR value: DR10

Samplerate: 48000 Hz
Channels: 2
Bits per sample: 24
Bitrate: 1708 kbps
Codec: FLAC
================================================================================



Thanks to the Original customer.