Quintetto a Plettro Giuseppe Anedda - Rossini- Overtures arranged for Mandolin Quintet (2020) [Official Digital Download 24/88]

Posted By: pyatak
Quintetto a Plettro Giuseppe Anedda - Rossini- Overtures arranged for Mandolin Quintet (2020) [Official Digital Download 24/88]

Quintetto a Plettro Giuseppe Anedda - Rossini- Overtures arranged for Mandolin Quintet (2020) [Official Digital Download 24/88]
FLAC (tracks) 24-bit/88.2 kHz | Front Cover | Time - 01:02:10 minutes | 1,16 GB
Classical | Label: Brilliant Classics, Official Digital Download

New recordings presenting a fun and unique perspective on the riotous, effervescent, surreal world of Rossini. Rossini was one of the most popular and successful composers of the beginning of the 19th century. His operas were performed all over Europe, and the overtures enjoyed immense success as concert pieces. He usually penned them down the day before the premiere, to the exasperation of the concert managers and the musicians.

All Rossini's qualities as a musical giant are to be found in concentrated form in the famous overtures. A solid, reliable structure underlies each one, with a slow introduction followed by the main section, a sort of sonata-form with no development consisting of an exposition (first subject, transition, second subject, crescendo and cadenza), a small modulation and a ripresa (with the first subject, transition, second subject, crescendo, cadenza and final cadenza). The sheer vitality of the music is astounding, and the wealth of thematic material ensures that each is remarkable in its own different way.

This new recording presents a selection of 8 overtures, arranged for Mandolin Quintet, consisting of two mandolins, a mandola, guitar and double bass. Included are Il Barbiere di Seviglia, La Gazza Ladra, La Cenerentola and more: a beautiful, brilliant and thoroughly idiomatic performance, in the grand Italian style!

The Mandolin Quintet Giuseppe Anedda gives concerts all over the world, enthusiastic advocates of that typical Italian instrument full of surprising possibilities, the Mandolin.

TRACKLIST

01. Quintetto a Plettro Giuseppe Anedda - L'italiana in Algeri
02. Quintetto a Plettro Giuseppe Anedda - Il viaggio a Reims
03. Quintetto a Plettro Giuseppe Anedda - La cenerentola
04. Quintetto a Plettro Giuseppe Anedda - La scala di seta
05. Quintetto a Plettro Giuseppe Anedda - Il signor Bruschino
06. Quintetto a Plettro Giuseppe Anedda - Il barbiere di Siviglia
07. Quintetto a Plettro Giuseppe Anedda - Tancredi
08. Quintetto a Plettro Giuseppe Anedda - La gazza ladra

foobar2000 1.6.2 / Dynamic Range Meter 1.1.1
log date: 2020-12-02 22:13:11

––––––––––––––––––––––––––––––––––––––––
Analyzed: Quintetto a Plettro Giuseppe Anedda / Rossini: Overtures arranged for Mandolin Quintet
––––––––––––––––––––––––––––––––––––––––

DR Peak RMS Duration Track
––––––––––––––––––––––––––––––––––––––––
DR10 -3.30 dB -18.06 dB 8:26 01-L'italiana in Algeri
DR8 -3.39 dB -16.02 dB 7:35 02-Il viaggio a Reims
DR9 -3.29 dB -16.53 dB 8:37 03-La cenerentola
DR9 -3.30 dB -16.89 dB 7:18 04-La scala di seta
DR10 -3.29 dB -17.33 dB 5:26 05-Il signor Bruschino
DR8 -3.39 dB -15.86 dB 7:40 06-Il barbiere di Siviglia
DR9 -3.29 dB -16.61 dB 7:02 07-Tancredi
DR9 -3.39 dB -16.50 dB 10:12 08-La gazza ladra
––––––––––––––––––––––––––––––––––––––––

Number of tracks: 8
Official DR value: DR9

Samplerate: 88200 Hz
Channels: 2
Bits per sample: 24
Bitrate: 2691 kbps
Codec: FLAC
================================================================================



Thanks to the Original customer.