Rachel Podger - Bach Double & Triple Concertos (2013) [SACD-R][OF]

Posted By: Discograf_man
Rachel Podger - Bach Double & Triple Concertos (2013) [SACD-R][OF]

Rachel Podger - Bach Double & Triple Concertos (2013) [SACD-R][OF]
Classical | SACD ISO: DST 2.0, 5.0 > 1-bit/2.8224 MHz | Artwork | 3.71 GB + 5% Recovery
Label: Channel Classics | Release Year: 2013

The dynamic ensemble Brecon Baroque was founded in 2007 by violinist and director Rachel Podger as resident ensemble at her annual Brecon Baroque Festival.The international line-up consists of some of the leading lights in the period-instrument world,such as cellist Alison McGillivray,flautist Katy Bircher,oboist Alexandra Bellamy and violist Jane Rogers,as well as some of Rachel's former students who now occupy leading positions in many of Europe's finest ensembles:violinists Bojan Cicic and Johannes Pramsohler.Brecon Baroque specialises in the music of J.S.Bach and his contemporaries,mostly as a one-to-a-part ensemble based on the Cafe Zimmerman ensemble which Bach himself directed.They also appear as a small baroque orchestra for Vivaldi,Telemann, Purcell and Handel.More than any other composer of his period,J.S.Bach realised the possibilities of the concerto avec plusieurs instruments.Drawing on the precedents of Vivaldi and others,Bach's probing musical intellect led him down novel paths of invention where the collaborative and antagonistic features of the genre reached unprecedented levels of complexity.
Tracklist:
1. Bach - Concerto for Two Violins BWV 1043 - Vivace 3:47
2. Bach - Concerto for Two Violins BWV 1043 - Largo ma non tanto 5:59
3. Bach - Concerto for Two Violins BWV 1043 - Allegro 4:34
4. Bach - Concerto for Harpsichord, Flute, and Violin BWV 1044 - Allegro 8:35
5. Bach - Concerto for Harpsichord, Flute, and Violin BWV 1044 - Adagio 6:01
6. Bach - Concerto for Harpsichord, Flute, and Violin BWV 1044 - Alla Breve 6:51
7. Bach - Concerto for violin and Oboe BWV 1060R - Allegro 4:52
8. Bach - Concerto for Violin and Oboe BWV 1060R - Adagio 4:29
9. Bach - Concerto for Violin and Oboe BWV 1060R - Allegro 3:26
10. Bach - Concerto for Three Violins BWV 1064R - Allegro 6:32
11. Bach - Concerto for Three Violins BWV 1064R - Adagio 5:43
12. Bach - Concerto for Three Violins BWV 1064R - Allegro 4:28

Rachel Podger - Bach Double & Triple Concertos (2013) [SACD-R][OF]

foobar2000 1.3.13 / Замер динамического диапазона (DR) 1.1.1
Дата отчёта: 2017-01-09 20:54:29

––––––––––––––––––––––––––––––––––––––––
Анализ: Rachel Podger / Bach Concerti vol. 2
––––––––––––––––––––––––––––––––––––––––

DR Пики RMS Продолжительность трека
––––––––––––––––––––––––––––––––––––––––
DR13 -8.34 дБ -26.27 дБ 3:44 01-Bach Double Concerto - Vivace
DR13 -11.71 дБ -29.32 дБ 5:57 02-Bach Double Concerto - Largo ma non tanto
DR13 -8.34 дБ -26.16 дБ 4:23 03-Bach Double Concerto - Allegro
DR13 -7.94 дБ -26.20 дБ 8:32 04-Bach Triple Concerto - Allegro
DR12 -12.70 дБ -31.93 дБ 6:01 05-Bach Triple Concerto - Adagio
DR13 -7.79 дБ -25.70 дБ 6:43 06-Bach Triple Concerto - Alle breve
DR13 -8.81 дБ -26.45 дБ 4:47 07-Bach Concerto for Oboe, Violin - Allegro
DR12 -11.55 дБ -28.73 дБ 4:29 08-Bach Concerto for Oboe, Violin - Adagio
DR12 -7.00 дБ -25.12 дБ 3:19 09-Bach Concerto for Oboe, Violin - Allegro
DR13 -7.99 дБ -25.67 дБ 6:26 10-Bach Triple Concerto for 3 violins - Allegro
DR13 -9.53 дБ -28.92 дБ 5:41 11-Bach Triple Concerto for 3 violins - Adagio
DR13 -8.93 дБ -25.97 дБ 4:28 12-Bach Triple Concerto for 3 violins - Allegro
––––––––––––––––––––––––––––––––––––––––

Количество треков: 12
Реальные значения DR: DR13

Частота: 2822400 Гц / Частота PCM: 44100 Гц
Каналов: 5
Разрядность: 24
Битрейт: 14112 кбит/с
Кодек: DST64
================================================================================

––––––––––––––––––––––––––––––––––––––––
Анализ: Rachel Podger / Bach Concerti vol. 2
––––––––––––––––––––––––––––––––––––––––

DR Пики RMS Продолжительность трека
––––––––––––––––––––––––––––––––––––––––
DR13 -7.12 дБ -23.99 дБ 3:46 01-Bach Double Concerto - Vivace
DR14 -10.21 дБ -26.92 дБ 5:59 02-Bach Double Concerto - Largo ma non tanto
DR12 -5.53 дБ -23.82 дБ 4:25 03-Bach Double Concerto - Allegro
DR12 -6.47 дБ -23.83 дБ 8:33 04-Bach Triple Concerto - Allegro
DR11 -12.27 дБ -29.00 дБ 6:00 05-Bach Triple Concerto - Adagio
DR12 -5.68 дБ -23.47 дБ 6:43 06-Bach Triple Concerto - Alle breve
DR13 -8.43 дБ -24.36 дБ 4:47 07-Bach Concerto for Oboe, Violin - Allegro
DR12 -11.53 дБ -26.79 дБ 4:29 08-Bach Concerto for Oboe, Violin - Adagio
DR12 -6.83 дБ -23.03 дБ 3:19 09-Bach Concerto for Oboe, Violin - Allegro
DR13 -5.66 дБ -23.56 дБ 6:27 10-Bach Triple Concerto for 3 violins - Allegro
DR13 -8.74 дБ -26.28 дБ 5:42 11-Bach Triple Concerto for 3 violins - Adagio
DR12 -7.82 дБ -23.94 дБ 4:29 12-Bach Triple Concerto for 3 violins - Allegro
––––––––––––––––––––––––––––––––––––––––

Количество треков: 12
Реальные значения DR: DR12

Частота: 2822400 Гц / Частота PCM: 44100 Гц
Каналов: 2
Разрядность: 24
Битрейт: 5645 кбит/с
Кодек: DST64
================================================================================

Thanks to the original customer