Raimund Lissy & Adela Frasineanu - The Viennese Violin School, Vol. 1 (2021) [Official Digital Download 24/88]

Posted By: pyatak
Raimund Lissy & Adela Frasineanu - The Viennese Violin School, Vol. 1 (2021) [Official Digital Download 24/88]

Raimund Lissy & Adela Frasineanu - The Viennese Violin School, Vol. 1 (2021) [Official Digital Download 24/88]
FLAC (tracks) 24-bit/88.2 kHz | Front Cover | Time - 75:43 minutes | 1,4 GB
Classical | Label: Gramola Records, Official Digital Download

The violin duos and etudes on the present CD were composed between 1820 and 1869; the composers - Joseph Mayseder, Leopold Jansa, Joseph Böhm, Georg Hellmesberger, Franz Grutsch and Jakob Dont - were outstanding violinists who decisively impacted Viennese musical life. Raimund Lissy and Adela Frasineanu, members of the violin section of the Vienna Philharmonic, present typical teaching repertoire from the Vienna Violin School, which is directly based on practical experience, since all but one of the composers were much sought-after violin teachers themselves. The first edition of this upcoming series emphatically demonstrates that with all the virtuoso content and etude-like form, the musical and cantabile aspects do not have to be neglected.

TRACKLIST

01. Raimund Lissy & Adela Frasineanu - Mayseder: Duo for 2 Violins in E Major, Op. 32: I. Allegro moderato
02. Raimund Lissy & Adela Frasineanu - Mayseder: Duo for 2 Violins in E Major, Op. 32: II. Scherzo. Presto - III. Trio
03. Raimund Lissy & Adela Frasineanu - Mayseder: Duo for 2 Violins in E Major, Op. 32: IV. Rondo, Moderato
04. Raimund Lissy & Adela Frasineanu - Jansa: Duo for 2 Violins in A Major, Op. 64 No. 6: I. Allegro ma non tanto
05. Raimund Lissy & Adela Frasineanu - Jansa: Duo for 2 Violins in A Major, Op. 64 No. 6: II. Andante, un poco allegretto
06. Raimund Lissy & Adela Frasineanu - Jansa: Duo for 2 Violins in A Major, Op. 64 No. 6: III. Allegretto
07. Raimund Lissy & Adela Frasineanu - Böhm: Etude No. 2 in G Minor
08. Raimund Lissy & Adela Frasineanu - Böhm: Etude No. 1 in C-Sharp Minor
09. Raimund Lissy & Adela Frasineanu - Sr.: Duo for No. 3 for 2 Violins in E Minor: I. Adagio
10. Raimund Lissy & Adela Frasineanu - Sr.: Duo for No. 3 for 2 Violins in E Minor: II. Polonaise
11. Raimund Lissy & Adela Frasineanu - Grutsch: Duo for 2 Violins, Op. 7 No. 3: III. Thema und Variationen
12. Raimund Lissy & Adela Frasineanu - Dont: Duo for 2 Violins in C Major, Op. 43: I. Allegro
13. Raimund Lissy & Adela Frasineanu - Dont: Duo for 2 Violins in C Major, Op. 43: II. Larghetto
14. Raimund Lissy & Adela Frasineanu - Dont: Duo for 2 Violins in C Major, Op. 43: III. Scherzo, Trio
15. Raimund Lissy & Adela Frasineanu - Dont: Duo for 2 Violins in C Major, Op. 43: IV. Rondo. Vivace

foobar2000 1.6.2 / Dynamic Range Meter 1.1.1
log date: 2021-01-14 10:13:05

––––––––––––––––––––––––––––––––––––––––
Analyzed: Raimund Lissy & Adela Frasineanu / The Viennese Violin School, Vol. 1
––––––––––––––––––––––––––––––––––––––––

DR Peak RMS Duration Track
––––––––––––––––––––––––––––––––––––––––
DR13 -0.97 dB -18.00 dB 5:59 01-Mayseder: Duo for 2 Violins in E Major, Op. 32: I. Allegro moderato
DR13 -1.00 dB -18.31 dB 3:41 02-Mayseder: Duo for 2 Violins in E Major, Op. 32: II. Scherzo. Presto - III. Trio
DR14 -0.26 dB -18.46 dB 6:53 03-Mayseder: Duo for 2 Violins in E Major, Op. 32: IV. Rondo, Moderato
DR12 -0.26 dB -16.13 dB 6:10 04-Jansa: Duo for 2 Violins in A Major, Op. 64 No. 6: I. Allegro ma non tanto
DR13 -0.86 dB -17.74 dB 4:09 05-Jansa: Duo for 2 Violins in A Major, Op. 64 No. 6: II. Andante, un poco allegretto
DR14 -0.26 dB -17.84 dB 6:20 06-Jansa: Duo for 2 Violins in A Major, Op. 64 No. 6: III. Allegretto
DR11 -0.65 dB -17.08 dB 2:11 07-Böhm: Etude No. 2 in G Minor
DR12 -0.28 dB -17.25 dB 1:51 08-Böhm: Etude No. 1 in C-Sharp Minor
DR14 -0.26 dB -18.41 dB 5:41 09-Sr.: Duo for No. 3 for 2 Violins in E Minor: I. Adagio
DR14 -0.71 dB -19.49 dB 9:39 10-Sr.: Duo for No. 3 for 2 Violins in E Minor: II. Polonaise
DR15 -0.28 dB -19.88 dB 8:22 11-Grutsch: Duo for 2 Violins, Op. 7 No. 3: III. Thema und Variationen
DR14 -0.58 dB -18.32 dB 4:45 12-Dont: Duo for 2 Violins in C Major, Op. 43: I. Allegro
DR13 -0.99 dB -17.49 dB 3:05 13-Dont: Duo for 2 Violins in C Major, Op. 43: II. Larghetto
DR13 -1.08 dB -17.31 dB 3:11 14-Dont: Duo for 2 Violins in C Major, Op. 43: III. Scherzo, Trio
DR13 -0.55 dB -18.31 dB 3:46 15-Dont: Duo for 2 Violins in C Major, Op. 43: IV. Rondo. Vivace
––––––––––––––––––––––––––––––––––––––––

Number of tracks: 15
Official DR value: DR13

Samplerate: 88200 Hz
Channels: 2
Bits per sample: 24
Bitrate: 2672 kbps
Codec: FLAC
================================================================================



Thanks to the Original customer.