Les Siècles, Ensemble Aedes & François-Xavier Roth - Ravel: Daphnis et Chloé (Live) (2017) [Official Digital Download 24/96]

Posted By: SERTiL
Les Siècles, Ensemble Aedes & François-Xavier Roth - Ravel: Daphnis et Chloé (Live) (2017) [Official Digital Download 24/96]

Les Siècles, Ensemble Aedes & François-Xavier Roth - Ravel: Daphnis et Chloé (Live) (2017)
FLAC (tracks) 24-bit/96 kHz | Time - 54:49 minutes | 889 MB
Studio Master, Official Digital Download | Artwork: Digital Booklet

'The arrival of an orchestra like Les Siècles on the harmonia mundi label is entirely logical: ever since it was founded by François-Xavier Roth in 2003, its musicians (mostly belonging to the new generation) have succeeded in placing several centuries of musical creation in perspective by playing the works they tackle on precisely the instruments used at the time of their premiere – without the slightest concession. The result is quite simple dazzling: never, since it was first heard, has Daphnis et Chloé displayed such a shimmering sound, revealing an infinity of details without ever losing sight of the subtle beauty of the most French of the great ‘Ballets Russes’.‘At this moment in the history of music, Ravel raised the French “Impressionist” orchestral style to a sort of apogee – in a sense it is the last great comédie-ballet in the history of French music’ (François-Xavier Roth).

'Daphnis and Chloé' is conceived as a ballet in one act and three parts, and tells the story of the love between the shepherd Daphnis and the shepherdess Chloé. A warlike tableau is framed by two pastoral ones: in the first, Daphnis and Chloé acknowledge their mutual love following a dance contest that provokes the jealousy of each of them in turn.

The interruption of a group of pirates, who abduct Chloé, puts an end to the rejoicing. The second tableau depicts the pirate camp; the captive girl is commanded to dance for her abductors. In the final tableau, Chloé is restored to Daphnis through a miracle of the god Pan, whom the nymphs have called on for help. After miming the tale of Pan and Syrinx, the young lovers let their joy burst forth in a General Dance of dazzling orgiastic virtuosity.

The orchestral forces are the largest Ravel ever employed and he adds a mixed chorus that sometimes hums and sometimes sings. As we have come to expect, François-Xavier Roth, in his début for harmonia mundi, has gone through Ravel's much-amended score with a fine-tooth comb and subsequently showed himself capable, in a ‘historically informed’ performance, of reproducing with the musicians of Les Siècles all the transparency and stylistic precision one could wish for in Ravel’s masterpiece.

"Daphnis et Chloé is part of the large-scale project we embarked on with Les Siècles in 2009: the odyssey of the Ballets Russes. To celebrate the centenary of that incredible artistic adventure, we wanted to reconstruct the Parisian orchestra that premiered these works in order to restore their original colours…As with each work of the Ballets Russes that we’ve played so far, we noticed just how remarkably the instruments of Ravel’s time, those French-built instruments typical of the early twentieth century, do justice to this music and make it meaningful!" FXR ….

Tracklist:

Maurice Ravel (1875-1937)

Daphnis et Chloé, M. 57, Acte I, Première partie
1 Introduction (Live) 03:09
2 Danse religieuse (Live) 05:15
3 Vif - Danse générale (Live) 03:10
4 Danse grotesque de Dorcon - Scène (Live) 01:51
5 Danse légère et gracieuse de Daphnis (Live) 02:54
6 Lent [devant le groupe radieux que forment Daphnis et Chloé enlacés] (Live) 01:42
7 Danse de Lycéion (Live) 01:30
8 Scène [Les Pirates] (Live) 01:46
9 Nocturne [Une lumière irréelle enveloppe le paysage] (Live) 01:32
10 Danse lente et mystérieuse des Nymphes (Live) 02:47
11 Interlude (Live) 02:55

Daphnis et Chloé, M. 57, Acte I, Deuxième partie
12 Introduction - Danse guerrière (Live) 04:31
13 Danse suppliante de Chloé (Live) 03:37
14 Lent [Soudain l'atmosphère semble chargée d'éléments insolites] (Live) 02:19

Daphnis et Chloé, M. 57, Acte I, Troisième partie
15 Lever du jour - Scène (Live) 05:38
16 Pantomime [Daphnis & Chloé miment l'aventure de Pan et de Syrinx] (Live) 01:20
17 Très lent [Chloé figure par sa danse les accents de la flûte] (Live) 02:34
18 Chloé tombe dans les bras de Daphnis (Live) 02:19
19 Animé - Danse générale (Live) 04:00

Personnel:
Marion Ralincourt, flute
Les Siècles & Ensemble Aedes
François-Xavier Roth, direction

foobar2000 1.3.7 / Dynamic Range Meter 1.1.1
log date: 2017-12-05 20:02:14

––––––––––––––––––––––––––––––––––––––––
Analyzed: Les Siècles, Ensemble Aedes, François-Xavier Roth and Marion Ralincourt & Ensemble Aedes & François-Xavier Roth & Marion Ralincourt / Ravel: Daphnis et Chloé (Live) (1-5)
Les Siècles, Ensemble Aedes, Marion Ralincourt and François-Xavier Roth & Ensemble Aedes & Marion Ralincourt & François-Xavier Roth / Ravel: Daphnis et Chloé (Live) (6-7)
Les Siècles, François-Xavier Roth, Marion Ralincourt and Ensemble Aedes & François-Xavier Roth & Marion Ralincourt & Ensemble Aedes / Ravel: Daphnis et Chloé (Live) (8-11)
Les Siècles, Marion Ralincourt, Ensemble Aedes and François-Xavier Roth & Marion Ralincourt & Ensemble Aedes & François-Xavier Roth / Ravel: Daphnis et Chloé (Live) (12-13)
Les Siècles, Marion Ralincourt, François-Xavier Roth and Ensemble Aedes & Marion Ralincourt & François-Xavier Roth & Ensemble Aedes / Ravel: Daphnis et Chloé (Live) (14-19)
––––––––––––––––––––––––––––––––––––––––

DR Peak RMS Duration Track
––––––––––––––––––––––––––––––––––––––––
DR12 -0.92 dB -19.99 dB 3:10 01-Introduction (Live)
DR13 -0.51 dB -20.02 dB 1:47 08-Scène [Les Pirates] (Live)
DR12 -8.34 dB -28.15 dB 2:48 10-Danse lente et mystérieuse des Nymphes (Live)
DR14 -0.07 dB -20.87 dB 5:39 15-Lever du jour-Scène (Live)
DR11 -11.91 dB -29.78 dB 1:20 16-Pantomime [Daphnis & Chloé miment l'aventure de Pan et de Syrinx] (Live)
DR12 -4.07 dB -26.71 dB 2:56 11-Interlude (Live)
DR16 -0.53 dB -24.90 dB 2:20 14-Lent [Soudain l'atmosphère semble chargée d'éléments insolites] (Live)
DR15 -5.77 dB -27.70 dB 2:55 05-Danse légère et gracieuse de Daphnis (Live)
DR14 -0.46 dB -23.26 dB 1:31 07-Danse de Lycéion (Live)
DR14 -8.35 dB -31.54 dB 1:32 09-Nocturne [Une lumière irréelle enveloppe le paysage] (Live)
DR14 -0.02 dB -20.15 dB 4:31 12-Introduction-Danse guerrière (Live)
DR15 -0.95 dB -21.97 dB 1:52 04-Danse grotesque de Dorcon-Scène (Live)
DR12 0.00 dB -18.01 dB 4:01 19-Animé-Danse générale (Live)
DR14 -0.97 dB -21.68 dB 5:15 02-Danse religieuse (Live)
DR15 -1.03 dB -23.77 dB 3:11 03-Vif-Danse générale (Live)
DR14 -0.17 dB -22.47 dB 1:42 06-Lent [devant le groupe radieux que forment Daphnis et Chloé enlacés] (Live)
DR14 -1.42 dB -23.64 dB 3:38 13-Danse suppliante de Chloé (Live)
DR16 -3.22 dB -27.37 dB 2:35 17-Très lent [Chloé figure par sa danse les accents de la flûte] (Live)
DR13 -0.12 dB -21.15 dB 2:19 18-Chloé tombe dans les bras de Daphnis (Live)
––––––––––––––––––––––––––––––––––––––––

Number of tracks: 19
Official DR value: DR14

Samplerate: 96000 Hz
Channels: 2
Bits per sample: 24
Bitrate: 2291 kbps
Codec: FLAC
================================================================================


Thanks to the Original customer.