Jan Lehtola, Helsinki Chamber Choir & Nils Schweckendiek - Riemuitkaamme! - A Finnish Christmas (2017) [24/96]

Posted By: SERTiL
Jan Lehtola, Helsinki Chamber Choir & Nils Schweckendiek - Riemuitkaamme! - A Finnish Christmas (2017) [24/96]

Jan Lehtola, Helsinki Chamber Choir & Nils Schweckendiek - Riemuitkaamme! - A Finnish Christmas (2017)
FLAC (tracks) 24-bit/96 kHz | Time - 73:43 minutes | 1.19 GB
Studio Master, Official Digital Download | Artwork: Digital Booklet

Riemuitkaamme! is an imaginative and unconventional selection of choral music associated with Christmas as it is celebrated in Finland. Several of the pieces are by Finnish composers – Sibelius, Rautavaara and Madetoja, to name a few – while others have become part of the Christmas traditions of the country despite their international background. Among these Berlioz’ The Shepherds’ Farewell and Tchaikovsky’s Christ, when a Child… are quite late additions compared to the medieval hymns Puer natus in Bethlehem, Ecce novum gaudium and Angelus emittitur. All three of these were included in the collection Piae cantiones from 1582, the oldest Finnish music publication. Here, they are performed in settings by various composers from different countries and eras – forming a kind of soundtrack of Christmases past and present, distant and close. Contemporary music forms an important part of the activities of the Helsinki Chamber Choir and Nils Schweckendiek, and true to form, the team includes a world premiere recording in their celebrations: Aattoilta, by the Canadian-born composer Matthew Whittall.

Tracklist:
Johann Sebastian Bach, Philipp Nicolai
01. Wachet auf – Synkkä yö maan peitti aivan 9'30
Jean Sibelius
02. En etsi valtaa, loistoa (Give me no Splendour, Gold or Pomp) 2'48
Leevi Madetoja
03. Arkihuolesi kaikki heitä (Throw Off All Your Daily Cares) 1'39
The Piae Cantiones, Michael Praetorius, Samuel Scheidt, Dietrich Buxtehude, Johann Hermann Schein, Bach Johann Sebastian
04. Puer natus in Bethlehem / Synnytti piltin Bethlehem 7'07
Taneli Kuusisto
05. Pastorale, Op. 18 No. 2 4'59
Hector Berlioz
06. Paimenten jäähyväiset pyhälle perheelle (L’Adieu des Bergers) 4'27
Armas Maasalo
07. Joulun kellot (Christmas Bells) 3'15
The Piae Cantiones, Jean Sibelius
08. Ecce novum gaudium 2'47
The Piae Cantiones, Jean Sibelius, Heikki Klemetti
09. Angelus emittitur / Enkel’ alas liihottaa 4'18
Jean Sibelius
10. On lapsonen syntynyt meille (A Child is Born Unto Us) 3'12
Matthew Whittall
11. Aattoilta (Christmas Eve) 3'35
Bach Johann Sebastian, Michael Praetorius, Hans Leo Hassler, Caspar Othmayr, Max Reger
12. Enkeli taivaan lausui näin (Vom Himmel hoch) 7'15
Einojuhani Rautavaara
13. Christmas Carol 4'19
Ahti Sonninen
14. Jouluhymni (Christmas Hymn) 2'54
Arvi Karvonen
15. Pastorale 4'55
Pyotr Il'yich Tchaikovsky
16. Jeesuslapsen tarhassa (Christ, when a Child, a Garden Made) 3'54
Trad. (Folk Song from Silesia)
17. Maa on niin kaunis (Glorious is the Earth [Fairest Lord Jesus]) 2'49

Personnel:
Jan Lehtola (organ)
Helsinki Chamber Choir
Nils Schweckendiek (conductor)

foobar2000 1.3.7 / Dynamic Range Meter 1.1.1
log date: 2017-11-26 20:46:21

––––––––––––––––––––––––––––––––––––––––
Analyzed: Helsinki Chamber Choir, Lehtola, Jan / Riemuitkaamme! - A Finnish Christmas
––––––––––––––––––––––––––––––––––––––––

DR Peak RMS Duration Track
––––––––––––––––––––––––––––––––––––––––
DR13 -0.20 dB -19.02 dB 9:31 01-Wachet auf – Synkkä yö maan peitti aivan
DR12 -2.92 dB -22.17 dB 2:48 02-En etsi valtaa, loistoa (Give me no Splendour, Gold or Pomp)
DR12 -1.35 dB -19.93 dB 1:39 03-Arkihuolesi kaikki heitä (Throw Off All Your Daily Cares)
DR14 -2.27 dB -22.38 dB 7:07 04-Puer natus in Bethlehem / Synnytti piltin Bethlehem
DR10 -12.52 dB -27.64 dB 5:00 05-Pastorale, Op. 18 No. 2
DR16 -0.20 dB -21.64 dB 4:28 06-Paimenten jäähyväiset pyhälle perheelle (L’Adieu des Bergers)
DR13 -4.15 dB -22.12 dB 3:15 07-Joulun kellot (Christmas Bells)
DR13 -4.63 dB -22.49 dB 2:47 08-Ecce novum gaudium
DR14 -0.80 dB -21.75 dB 4:18 09-Angelus emittitur / Enkel’ alas liihottaa
DR15 -3.65 dB -24.57 dB 3:13 10-On lapsonen syntynyt meille (A Child is Born Unto Us)
DR11 -10.13 dB -27.92 dB 3:36 11-Aattoilta (Christmas Eve)
DR13 -0.50 dB -19.08 dB 7:15 12-Enkeli taivaan lausui näin (Vom Himmel hoch)
DR13 -0.20 dB -18.21 dB 4:19 13-Christmas Carol
DR13 -5.80 dB -26.49 dB 2:55 14-Jouluhymni (Christmas Hymn)
DR10 -12.27 dB -26.25 dB 4:55 15-Pastorale
DR13 -0.20 dB -20.33 dB 3:54 16-Jeesuslapsen tarhassa (Christ, when a Child, a Garden Made)
DR12 -0.20 dB -16.66 dB 2:50 17-Maa on niin kaunis (Glorious is the Earth [Fairest Lord Jesus])
––––––––––––––––––––––––––––––––––––––––

Number of tracks: 17
Official DR value: DR13

Samplerate: 96000 Hz
Channels: 2
Bits per sample: 24
Bitrate: 2334 kbps
Codec: FLAC
================================================================================


Thanks to the Original customer.