Tags
Language
Tags

Robbin Kapsalis and Vintage #18 - Soul Shaker (2021) [Official Digital Download 24/96]

Posted By: pyatak
Robbin Kapsalis and Vintage #18 - Soul Shaker (2021) [Official Digital Download 24/96]

Robbin Kapsalis and Vintage #18 - Soul Shaker (2021) [Official Digital Download 24/96]
FLAC (tracks) 24-bit/96 kHz | Front Cover | Time - 43:18 minutes | 917 MB
Blues, Soul | Label: Bird Song Records, Official Digital Download

Vocalist Robbin Kapsalis and her flame-throwing band Vintage #18 go so hard on their new sophomore release Soul Shaker that you’ll want to get to dancing in zero seconds flat. The record blasts off October 15th, 2021 on Bird Song Records and gives listeners another dose of Kapsalis and company operating at the top of their ferocious game. The sessions were band-produced and tracked at Gizmo Recording Studios in Silver Spring, Maryland with Gantt Kushner engineering. This proved to be a potent mix of musical spirits that utilized blues, soul, and jazz inspirations to create an amazing record that’s refreshingly genuine and that crackles with the energy of real life. Consisting of six new originals and three covers, Soul Shaker brings us all the kind of reason-to-live music we need to survive our desperate, contemporary world.

Kapsalis is a Chicago native who moved south to Atlanta when she was 14. She sang the alto part in her church choir’s arrangements and developed a rich, low-toned voice influenced by Sharon Jones, Koko Taylor, Tina Turner, and Gladys Knight. Vintage #18 is the first and only band she’s ever been part of and she displays the enthusiasm and excitement that many road warrior veterans can’t muster up anymore. Backed up by the stomping trio of Bill Holter on guitars, Alex Kuldell on drums, and Mark Chandler on bass, Kapsalis and her trademark sassed-up white fringed dress has been building a stellar reputation throughout Washington, D.C., Maryland, and Virginia since 2013. She has opened for major blues artists including The Nighthawks, Billy Price, Roomful of Blues, Lil’ Ed and the Blues Imperials, Albert Cummings, Selwyn Birchwood, and Coco Montoya, performed at the International Blues Challenge in Memphis, and put out a well-received debut effort called Grit in 2017.

TRACKLIST

1. Robbin Kapsalis and Vintage #18 - Shake It Baby
2. Robbin Kapsalis and Vintage #18 - Lost Souls
3. Robbin Kapsalis and Vintage #18 - Boogaloo
4. Robbin Kapsalis and Vintage #18 - Living Large
5. Robbin Kapsalis and Vintage #18 - You Don't Deserve Me
6. Robbin Kapsalis and Vintage #18 - Jukin'
7. Robbin Kapsalis - From the Heart of the One
8. Robbin Kapsalis and Vintage #18 - Silver Spoon
9. Robbin Kapsalis and Vintage #18 - Fever
10. Robbin Kapsalis and Vintage #18 - The Cannonball
11. Robbin Kapsalis and Vintage #18 - You Don't Deserve Me (Extended Groove)

foobar2000 1.6.2 / Dynamic Range Meter 1.1.1
log date: 2021-10-15 19:50:18

––––––––––––––––––––––––––––––––––––––––
Analyzed: Robbin Kapsalis and Vintage #18 / Soul Shaker (1-10)
Robbin Kapsalis / Soul Shaker (11)
––––––––––––––––––––––––––––––––––––––––

DR Peak RMS Duration Track
––––––––––––––––––––––––––––––––––––––––
DR8 -0.28 dB -8.79 dB 4:24 01-Shake It Baby
DR7 -0.29 dB -8.68 dB 3:12 02-Lost Souls
DR7 -0.24 dB -8.85 dB 3:02 03-Boogaloo
DR7 -0.32 dB -9.36 dB 3:37 04-Living Large
DR7 -0.23 dB -8.96 dB 3:54 05-You Don't Deserve Me
DR8 -0.25 dB -8.90 dB 2:47 06-Jukin'
DR7 -0.23 dB -8.43 dB 3:09 08-Silver Spoon
DR8 -0.29 dB -10.26 dB 4:05 09-Fever
DR8 -0.27 dB -9.11 dB 4:10 10-The Cannonball
DR7 -0.18 dB -9.07 dB 7:13 11-You Don't Deserve Me (Extended Groove)
DR8 -0.38 dB -9.92 dB 3:51 07-From the Heart of the One
––––––––––––––––––––––––––––––––––––––––

Number of tracks: 11
Official DR value: DR8

Samplerate: 96000 Hz
Channels: 2
Bits per sample: 24
Bitrate: 2683 kbps
Codec: FLAC
================================================================================



Thanks to the Original customer.