Robin McAuley - Standing on the Edge (2021) [Official Digital Download]

Posted By: pyatak
Robin McAuley - Standing on the Edge (2021) [Official Digital Download]

Robin McAuley - Standing on the Edge (2021) [Official Digital Download]
FLAC (tracks) 24-bit/44.1 kHz | Front Cover | Time - 44:33 minutes | 547MB
Hard Rock | Label: Frontiers Records, Official Digital Download

The forthcoming new solo album by Robin McAuley, ‘Standing On The Edge’, sees the respected Irish rock singer make a strong musical statement during a period that has been more creative than ever for him. Following his re-emergence on the recordings side of the music industry with guest spots on Michael Schenker Fest albums and fronting the hard rock supergroup Black Swan, McAuley is feeling invigorated and creative, while also demonstrating that his voice is as powerful as ever. ‘Standing On The Edge’ will be released on 7th May 2021.

“It was hard not to draw reference to the dreaded pandemic we all still find ourselves in,” states McAuley, “so I just spat out what I was feeling. ‘Standing On The Edge’ seemed an appropriate title to describe the current climate. In contrast to that, however, songs like ‘Run Away’ hearken back to my childhood years, racing across the fields next to our house trying to beat the rain home. I’m still running all these years later! Alessandro [Del Vecchio] sent me this beautiful music and the lyric and melody came together quite quickly. It’s very simple and childlike and I really like how the song turned out. On the other hand, ‘Wanna Take A Ride’ was just me desperate to get out of the house during lockdown and head to the beach. Top-down, throttle wide open, and a stiff middle finger to Covid. I crank this SO LOUD in my car. Makes me smile! : )”

Robin McAuley is acknowledged as one of the best singers from a golden period in hard rock music. His voice can be heard on albums by Grand Prix and Far Corporation, as well as the chart-topping MSG records ‘Perfect Timing’, ‘Save Yourself’ and ‘MSG’. It was via these that he was introduced to hard rock fans at large, who couldn’t fail to recognise the inherent talent and skill in his vocal abilities. After departing MSG he released a 1999 solo record, then joined AOR legends Survivor, but then re-grouped with Schenker in Michael Schenker Fest for their recent ’Resurrection’ and ‘Revelation’ records. And, of course, in what was a revelation to hard rock fans worldwide, 2020 saw him participate in the supergroup Black Swan, for which he joined forces with Reb Beach (Whitesnake, Winger), Jeff Pilson (Foreigner, ex-Dokken) and Matt Starr (Ace Frehley, Mr Big).

TRACKLIST

1. Robin McAuley - Thy Will Be Done
2. Robin McAuley - Standing on the Edge
3. Robin McAuley - Late December
4. Robin McAuley - Do You Remember
5. Robin McAuley - Say Goodbye
6. Robin McAuley - Chosen Few
7. Robin McAuley - Run Away
8. Robin McAuley - Supposed to Do Now
9. Robin McAuley - Wanna Take a Ride
10. Robin McAuley - Like a Ghost
11. Robin McAuley - Running out of Time

foobar2000 1.6.2 / Dynamic Range Meter 1.1.1
log date: 2021-05-07 08:43:57

––––––––––––––––––––––––––––––––––––––––
Analyzed: Robin McAuley / Standing on the Edge
––––––––––––––––––––––––––––––––––––––––

DR Peak RMS Duration Track
––––––––––––––––––––––––––––––––––––––––
DR7 -1.72 dB -10.32 dB 3:53 01-Thy Will Be Done
DR9 -1.38 dB -10.69 dB 4:17 02-Standing on the Edge
DR8 -1.98 dB -10.67 dB 3:35 03-Late December
DR9 -1.36 dB -11.11 dB 4:25 04-Do You Remember
DR8 -1.25 dB -10.31 dB 4:22 05-Say Goodbye
DR9 -1.11 dB -10.81 dB 4:22 06-Chosen Few
DR8 -2.40 dB -12.14 dB 3:41 07-Run Away
DR8 -1.88 dB -10.55 dB 3:27 08-Supposed to Do Now
DR9 -0.34 dB -10.45 dB 3:49 09-Wanna Take a Ride
DR7 -2.03 dB -9.77 dB 4:27 10-Like a Ghost
DR6 -2.55 dB -9.93 dB 4:22 11-Running out of Time
––––––––––––––––––––––––––––––––––––––––

Number of tracks: 11
Official DR value: DR8

Samplerate: 44100 Hz
Channels: 2
Bits per sample: 24
Bitrate: 1709 kbps
Codec: FLAC
================================================================================



Thanks to the Original customer.