Tags
Language
Tags

Roderick Williams, James Way - Stanford - Songs of Faith, Love and Nonsense (2021) [Official Digital Download 24/88]

Posted By: pyatak
Roderick Williams, James Way - Stanford - Songs of Faith, Love and Nonsense (2021) [Official Digital Download 24/88]

Roderick Williams, James Way - Stanford - Songs of Faith, Love and Nonsense (2021) [Official Digital Download 24/88]
FLAC (tracks) 24-bit/88.2 kHz | Front Cover | Time - 78:50 minutes | 1,16 GB
Classical | Label: SOMM Recordings, Official Digital Download

SOMM RECORDINGS announces a major new recording of songs by Charles Villiers Stanford including the first complete recording of Songs of Faith and 12 first recordings of other distinctively vital songs. Songs of Love, Faith and Nonsense continues SOMMs widely acclaimed commitment to Stanfords music with baritone Roderick Williams, tenor James Way (making his SOMM debut) and pianist Andrew West throwing revealing new light on his gift for word setting and the variety of his responses to matters of emotional ardor, spiritual fervency and the sublime nonsense poems of Edward Lear. Setting poems by Tennyson and Walt Whitman, Songs of Faith demonstrates Stanfords ability to give unique expression to the profound and the arcane with music of dramatic force and harmonic ingenuity. Three songs by Robert Bridges (librettist for Stanfords oratorio Eden) and four songs from the opera Shamus OBrien tap into Stanfords Irish roots to colorful and evocative effect. Composed to mark his 25th wedding anniversary and receiving its first recording, The Triumph of Love sets five sonnets by his close cousin, Edmond Gore Alexander Holmes, in richly executed settings. The delightful Nonsense Rhymes taken from Edward Lears inimitably playful, poignant and pointed limericks show a different side to Stanford, a highly articulate, dry humor like many literary Irishmen of his era, as Jeremy Dibble says in his authoritative booklet notes.

TRACKLIST

01. Roderick Williams, James Way, Andrew West - Songs of Faith, Op. 97: Set 1 - No. 1, Strong Son of God
02. Roderick Williams, James Way, Andrew West - Songs of Faith, Op. 97: Set 1 - No. 2, God and the Universe
03. Roderick Williams, James Way, Andrew West - Songs of Faith, Op. 97: Set 1 - No. 3, Faith
04. Roderick Williams, James Way, Andrew West - Songs of Faith, Op. 97: Set 2 - No. 4, To the Soul
05. Roderick Williams, James Way, Andrew West - Songs of Faith, Op. 97: Set 2 - No. 5, Tears!
06. Roderick Williams, James Way, Andrew West - Songs of Faith, Op. 97: Set 2 - No. 6, Joy, Shipmate, Joy!
07. Roderick Williams, James Way, Andrew West - 3 Songs of Robert Bridges, Op. 43: No. 1, Since Thou, O Fondest and Truest
08. Roderick Williams, James Way, Andrew West - 3 Songs of Robert Bridges, Op. 43: No. 2, I Praise the Tender Flower
09. Roderick Williams, James Way, Andrew West - 3 Songs of Robert Bridges, Op. 43: No. 3, Say, O Say! Saith the Music
10. Roderick Williams, James Way, Andrew West - Shamus O'Brien, Op. 61 (Excerpts): My Heart Is Thrall
11. Roderick Williams, James Way, Andrew West - Shamus O'Brien, Op. 61 (Excerpts): Glengall
12. Roderick Williams, James Way, Andrew West - Shamus O'Brien, Op. 61 (Excerpts): Ochone, When I Used to Be Young
13. Roderick Williams, James Way, Andrew West - Shamus O'Brien, Op. 61 (Excerpts): I Love My Ould Ireland
14. Roderick Williams, James Way, Andrew West - Nonsense Rhymes: No. 1, The Hardy Norsewoman, Op. 365
15. Roderick Williams, James Way, Andrew West - Nonsense Rhymes: No. 2, The Compleat Virtuoso, Op. 366
16. Roderick Williams, James Way, Andrew West - Nonsense Rhymes: No. 3, The Absent Barber, Op. 367
17. Roderick Williams, James Way, Andrew West - Nonsense Rhymes: No. 4, The Cow and the Coward, Op. 368
18. Roderick Williams, James Way, Andrew West - Nonsense Rhymes: No. 5, Barkerolle, Op. 369 (1)
19. Roderick Williams, James Way, Andrew West - Nonsense Rhymes: No. 6, Dithyramb, Op. 370
20. Roderick Williams, James Way, Andrew West - Nonsense Rhymes: No. 7, The Generous Parishioner, Op. 371
21. Roderick Williams, James Way, Andrew West - Nonsense Rhymes: No. 8, Limmerich ohne Worte, Op. 372
22. Roderick Williams, James Way, Andrew West - Nonsense Rhymes: No. 9, Boat Song, Op. 373
23. Roderick Williams, James Way, Andrew West - Nonsense Rhymes: No. 10, Nileinsamkeit, Op. 374
24. Roderick Williams, James Way, Andrew West - Nonsense Rhymes: No. 11, The Aquiline Snub, Op. 375
25. Roderick Williams, James Way, Andrew West - Nonsense Rhymes: No. 12, Tone Poem, Op. 376
26. Roderick Williams, James Way, Andrew West - Nonsense Rhymes: No. 13, Gongdichtung, Op. 377
27. Roderick Williams, James Way, Andrew West - Nonsense Rhymes: No. 14, A Visit of Elizabeth, Op. 378
28. Roderick Williams, James Way, Andrew West - 5 Sonnets from "The Triumph of Love", Op. 82: No. 1, O One Deep Sacred Outlet of My Soul
29. Roderick Williams, James Way, Andrew West - 5 Sonnets from "The Triumph of Love", Op. 82: No. 2, Like as the Thrush in Winter
30. Roderick Williams, James Way, Andrew West - 5 Sonnets from "The Triumph of Love", Op. 82: No. 3, When in the Solemn Stillness of the Night
31. Roderick Williams, James Way, Andrew West - 5 Sonnets from "The Triumph of Love", Op. 82: No. 4, I Think That We Were Children
32. Roderick Williams, James Way, Andrew West - 5 Sonnets from "The Triumph of Love", Op. 82: No. 5, O Flames of Passion
33. Roderick Williams, James Way, Andrew West - Nonsense Rhymes: No. 5, Barkerolle, Op. 369 (2)

foobar2000 1.6.2 / Dynamic Range Meter 1.1.1
log date: 2021-01-20 13:58:43

––––––––––––––––––––––––––––––––––––––––
Analyzed: Roderick Williams, James Way, Andrew West / Stanford: Songs of Faith, Love and Nonsense
––––––––––––––––––––––––––––––––––––––––

DR Peak RMS Duration Track
––––––––––––––––––––––––––––––––––––––––
DR12 -2.81 dB -20.23 dB 1:54 01-Songs of Faith, Op. 97: Set 1 - No. 1, Strong Son of God
DR14 -1.95 dB -24.68 dB 4:07 02-Songs of Faith, Op. 97: Set 1 - No. 2, God and the Universe
DR13 -1.10 dB -20.32 dB 2:41 03-Songs of Faith, Op. 97: Set 1 - No. 3, Faith
DR15 -0.82 dB -22.82 dB 4:05 04-Songs of Faith, Op. 97: Set 2 - No. 4, To the Soul
DR13 -1.62 dB -22.64 dB 4:26 05-Songs of Faith, Op. 97: Set 2 - No. 5, Tears!
DR12 -4.46 dB -21.66 dB 1:53 06-Songs of Faith, Op. 97: Set 2 - No. 6, Joy, Shipmate, Joy!
DR14 -5.75 dB -25.68 dB 2:25 07-3 Songs of Robert Bridges, Op. 43: No. 1, Since Thou, O Fondest and Truest
DR13 -4.48 dB -26.19 dB 2:25 08-3 Songs of Robert Bridges, Op. 43: No. 2, I Praise the Tender Flower
DR14 -6.90 dB -25.63 dB 2:44 09-3 Songs of Robert Bridges, Op. 43: No. 3, Say, O Say! Saith the Music
DR15 -2.89 dB -23.55 dB 3:50 10-Shamus O'Brien, Op. 61 (Excerpts): My Heart Is Thrall
DR14 -5.09 dB -23.43 dB 2:31 11-Shamus O'Brien, Op. 61 (Excerpts): Glengall
DR15 -2.05 dB -22.55 dB 2:51 12-Shamus O'Brien, Op. 61 (Excerpts): Ochone, When I Used to Be Young
DR14 -1.83 dB -20.47 dB 2:03 13-Shamus O'Brien, Op. 61 (Excerpts): I Love My Ould Ireland
DR12 -5.53 dB -26.17 dB 0:54 14-Nonsense Rhymes: No. 1, The Hardy Norsewoman, Op. 365
DR13 -10.93 dB -29.07 dB 1:13 15-Nonsense Rhymes: No. 2, The Compleat Virtuoso, Op. 366
DR15 -4.76 dB -24.72 dB 4:09 16-Nonsense Rhymes: No. 3, The Absent Barber, Op. 367
DR14 -3.95 dB -24.58 dB 1:36 17-Nonsense Rhymes: No. 4, The Cow and the Coward, Op. 368
DR15 -7.52 dB -28.09 dB 0:57 18-Nonsense Rhymes: No. 5, Barkerolle, Op. 369 (1)
DR14 -3.55 dB -22.23 dB 1:27 19-Nonsense Rhymes: No. 6, Dithyramb, Op. 370
DR16 -3.85 dB -25.70 dB 2:06 20-Nonsense Rhymes: No. 7, The Generous Parishioner, Op. 371
DR11 -13.96 dB -31.34 dB 0:53 21-Nonsense Rhymes: No. 8, Limmerich ohne Worte, Op. 372
DR13 -3.98 dB -24.75 dB 1:47 22-Nonsense Rhymes: No. 9, Boat Song, Op. 373
DR14 -3.70 dB -23.19 dB 1:22 23-Nonsense Rhymes: No. 10, Nileinsamkeit, Op. 374
DR12 -9.04 dB -25.86 dB 1:43 24-Nonsense Rhymes: No. 11, The Aquiline Snub, Op. 375
DR13 -3.71 dB -21.39 dB 1:34 25-Nonsense Rhymes: No. 12, Tone Poem, Op. 376
DR18 -0.10 dB -22.86 dB 2:48 26-Nonsense Rhymes: No. 13, Gongdichtung, Op. 377
DR13 -6.00 dB -26.40 dB 1:37 27-Nonsense Rhymes: No. 14, A Visit of Elizabeth, Op. 378
DR13 -1.97 dB -20.31 dB 2:24 28-5 Sonnets from "The Triumph of Love", Op. 82: No. 1, O One Deep Sacred Outlet of My Soul
DR14 -4.88 dB -24.61 dB 3:12 29-5 Sonnets from "The Triumph of Love", Op. 82: No. 2, Like as the Thrush in Winter
DR14 -1.34 dB -20.69 dB 4:21 30-5 Sonnets from "The Triumph of Love", Op. 82: No. 3, When in the Solemn Stillness of the Night
DR15 -6.46 dB -26.72 dB 3:21 31-5 Sonnets from "The Triumph of Love", Op. 82: No. 4, I Think That We Were Children
DR14 -1.11 dB -18.64 dB 2:34 32-5 Sonnets from "The Triumph of Love", Op. 82: No. 5, O Flames of Passion
DR15 -6.52 dB -27.01 dB 1:00 33-Nonsense Rhymes: No. 5, Barkerolle, Op. 369 (2)
––––––––––––––––––––––––––––––––––––––––

Number of tracks: 33
Official DR value: DR14

Samplerate: 88200 Hz
Channels: 2
Bits per sample: 24
Bitrate: 1978 kbps
Codec: FLAC
================================================================================



Thanks to the Original customer.